Драйв. Мото. Вторые руки / Серии: 1-15 [2013, Россия, Мотоциклы, SATRip] 

Цитировать
Драйв. Мото. Вторые руки [2013, Россия, Мотоциклы, SATRip]
Страна: Россия
Жанр: Мотоциклы
Дата выпуска: 2013
Продолжительность: 00:25:50
Перевод: Не требуется
Описание: Передача о подержанных мотоциклах. Мы выбираем мотоциклы по принципу "Старый друг - лучше новых двух!". Передача рассказывает о популярных на вторичном рынке моделях двухколёсного транспорта. В передаче рассказывается о плюсах и минусах конкретных моделей, их болячках и часто встречающихся неисправностях, эксплуатационных издержках и просто о впечатлении от езды на них. Подскажут, как выбрать достойный экземпляр, куда заглянуть в первую очередь при покупке. Квалифицированные мастера расскажут всю подноготную стальных коней. Каждая серия - отдельный представитель двухколёсного мира и всё про него.
Качество видео: SATRip
Формат видео: MKV
Видео: MPEG2 Video 720x576 (4:3) 25.00fps ~1900 Kbps avg
Аудио: MPEG Audio 48000Hz stereo 192kbps

Список серий

01. Honda CB400 super four.
02. Suzuki Sepia ZZ.
03. Honda VFR800.
04. Honda VFR1200.
05. Kawasaki Ninja ZX-9R.
06. Yamaha YZF-R6.
07. BMW F800GS.
08. BMW K1600GT.
09. BMW F800R.
10. Honda ST1300A Pan-European.
11. Honda CBR1100XX Super Blackbird.
12. Suzuki GSX 1200 Bandit.
13. Yamaha FZ1 Fazer.
14. Honda CBR954RR Fireblade.
15. Honda GoldWing 1800 GL.
Раздача будет пополняться с выходом новых серий.

Видео Аудио подробности

General
Complete name : D:\video\rec\Мото Вторые руки\Мото Вторые руки - 01.mkv
Format : Matroska
File size : 402 MiB
Duration : 25mn 59s
Overall bit rate : 2 162 Kbps
Encoded date : UTC 2013-10-04 17:07:22
Writing application : mkvmerge v6.4.1 ('Omega Point') built on Sep 16 2013 22:05:10
Writing library : libebml v1.3.0 + libmatroska v1.4.1
Video
ID : 1
Format : MPEG Video
Format version : Version 2
Format profile : Main@Main
Format settings, BVOP : Yes
Format settings, Matrix : Default
Codec ID : V_MPEG2
Codec ID/Info : MPEG 1 or 2 Video
Duration : 25mn 59s
Bit rate mode : Variable
Bit rate : 1 927 Kbps
Nominal bit rate : 10 000 Kbps
Width : 720 pixels
Height : 576 pixels
Display aspect ratio : 4:3
Frame rate : 25.000 fps
Standard : PAL
Resolution : 8 bits
Colorimetry : 4:2:0
Scan type : Interlaced
Scan order : Top Field First
Bits/(Pixel*Frame) : 0.186
Stream size : 358 MiB (89%)
Language : Russian
Audio
ID : 2
Format : MPEG Audio
Format version : Version 1
Format profile : Layer 2
Codec ID : A_MPEG/L2
Codec ID/Hint : MP2
Duration : 25mn 59s
Bit rate mode : Constant
Bit rate : 192 Kbps
Channel(s) : 2 channels
Sampling rate : 48.0 KHz
Video delay : -28ms
Stream size : 35.7 MiB (9%)
Language : Russian

Внимание! Обновление раздачи ведётся путём добавления новых серий!

Обновление раздачи ведётся путём добавления новых серий. При каждом добавлении создаётся новый торрент. Чтобы начать докачку новой серии, пользователям необходимо сделать следующее:
(1) остановить скачивание,
(2) удалить старый торрент у себя из клиента (старые серии удалять не надо),
(3) скачать новый торрент и запустить его у себя в клиенте вместо старого, при этом указать клиенту путь в старую папку куда и должно происходить скачивание новых серий.
Ваш клиент при этом должен произвести хеширование (проверку) старой папки (если не производит сам - помогите ему сделать это), и будет докачивать только те серии которых у вас ещё нет. Старые серии при этом не удаляются, а продолжают раздаваться!
Eсли вы уже удалили старые серии, то предотвратить повторную закачку старых серий можно, отжав галочку в соответствующих местах при запуске нового торрента. По возможности, желательно не удалять старые серии как можно дольше чтобы релизёр не столько продолжал раздавать старые серии, а смог сконцентрироваться на новых.
Вы не можете начинать темы
Вы не можете отвечать на сообщения
Вы не можете редактировать свои сообщения
Вы не можете удалять свои сообщения
Вы не можете голосовать в опросах
Вы не можете прикреплять файлы к сообщениям
Вы можете скачивать файлы
!ВНИМАНИЕ!

Сайт не предоставляет электронные версии произведений, а занимается лишь коллекционированием и каталогизацией ссылок, присылаемых и публикуемых на форуме нашими читателями. Если вы являетесь правообладателем какого-либо представленного материала и не желаете, чтобы ссылка на него находилась в нашем каталоге, свяжитесь с нами, и мы незамедлительно удалим ее. Файлы для обмена на трекере предоставлены пользователями сайта, и администрация не несет ответственности за их содержание. Просьба не заливать файлы, защищенные авторскими правами, а также файлы нелегального содержания!

Искали программы, игры, дополнения, музыка mp3, аниме, аудио книги, журналы? Добро пожаловать на свободный торрент трекер Torrents, у нас можно скачать бесплатно, без смс и регистрации и прочих ограничений лучшие, отборные сборки программ, игр. Скачать торрентом не составит труда даже не опытному пользователю. Раздачи ежедневно обновляются, только лучшие и качественные раздачи, подробные описания и скриншоты. Огромная коллекция программ для работы со звуком, графикой, дизайном, а так же множество плагинов и инструментов к ним с подробной инструкцией и рекомендациями. Прошивки для навигаторов, карты. Разнообразные игры, для Windows, Linux. В коллекцие есть и старые игры любых жанров, Rpg, Action, Shooter, strategy Множество дополнений, модификаций, сценариев для популярных игр в жанре экш, рпг, гонки, стратегии, логические игры. Множество аддонов и сценариев для Microsoft Flight Simulator Большая коллекция книг, учебников. Если нет возможности купить печатное издание - смело скачивайте цифровую версию книги или, быть может, журнала. Не любите читать - можно загрузить бесплатно аудикнигу. Для веб дизайнеров и программистов так же найдется множество специализированного софта, таких как: редакторы с подсветкой, среды программирования, компоненты, системы управления базами данных, разнообразные скрипты и шаблоны. Не так давно у нас появился материал для автолюбителей и владельцев мото - оригинальные и неоригинальные каталоги запчастей, книги и журналы по ремонту и обслуживанию, видеоуроки, статьи по чип тюнингу, прошивкам. Процедура получения контента элементарная, достаточно просто скачать торрент файл и добавить его в загрузку в вашем торрент клиенте. Если у вас нет специального торрент клиента, вы можете его скачать у нас.

Sitemap