Возвращение домой - Тамара Гвердцители (Дмитрий Лукашов) [2004, июль, Документальный, TVRip] 

Цитировать
Возвращение домой - Тамара Гвердцители
Дата/Год выпуска: 2004, июль
Страна: Россия
Жанр: Документальный
Продолжительность: 00:38:43
Перевод: Не требуется
Режиссер: Дмитрий Лукашов
Телеканал: Домашний
Описание: Возвращение домой это цикл фильмов герои которого - люди, родившиеся в СССР. Они известны. Многих из них можно по праву назвать кумирами нескольких поколений. Программа позволила герою совершить виртуальное путешествие во времени к истокам своего жизненного и творческо-профессионального пути. Программа построена на воспоминаниях от первого лица, на диалогах героя с людьми которых он давно не встречал: одноклассники, соседи, друзья детства, сослуживцы и т.д.
Самая душевная и добрая передача о Тамаре Гвердцители - о её Родине, о местах, где она выросла, о ней самой - через трогательные отзывы друзей и близких.
У зрителей появляется уникальная возможность погрузиться в мир Тамрико, прочувствовать всю его энергию, любовь и тепло.

Доп. информация: Исходник http://rutracker.org/forum/viewtopic.php?t=1302635
Видео не менял, а аудио в этом исходнике не популярного формата. Перевёл в мп3. Размер файла стал гораздо меньше.
Кроме того, сидов на исходнике давно нет.
Вот, что смог найти на рутрекере из существующих выпусков этой тв передачи:

скрытый текст

Михаил Танич (Таганрог) 2003 http://rutracker.org/forum/viewtopic.php?t=1695812
Александр Абдулов (Фергана) 2003 http://rutracker.org/forum/viewtopic.php?t=1457968
Владимир Спиваков (Санкт-Петербург) 2004 http://rutracker.org/forum/viewtopic.php?t=2783381
Алексей Гуськов (Киев) 2004 http://rutracker.org/forum/viewtopic.php?t=4745709
Тамара Гвердцители (Тбилиси) 2004 http://rutracker.org/forum/viewtopic.php?t=1302635
Сергей Безруков (п.Лысково, Нижегородской области) 2003 http://rutracker.org/forum/viewtopic.php?t=2632810
Вячеслав Бутусов (Красноярск) http://rutracker.org/forum/viewtopic.php?t=3778647 А так же моя раздача http://rutracker.org/forum/viewtopic.php?t=5329194
А эти выпуски на рутрекере не видел, но видел по тв:
Ингеборга Дапкунайте
Гоша Куценко
и о писательнице современной, вроде Донцова. Видел давно эти выпуски, поэтому подробности не помню.
Есть ещё несколько выпусков, которых нет на рутрекере. Потом сделаю раздачи. Только вот с Натальей Королёвой видео со страшным плавающим рассинхроном. Может кто то захочет исправить?
Сэмпл: http://sendfile.su/1338938
качество: TVRip
формат: AVI
Видео: 720x576 (1.25:1), 25 fps, XviD MPEG-4 ~965 kbps avg, 0.09 bit/pixel
Аудио: MPEG Layer 3, 44.100 kHz, 2 ch, 96.00 kbps avg

MediaInfo

Video
ID : 0
Format : MPEG-4 Visual
Format profile : Advanced Simple@L5
Format settings, BVOP : 2
Format settings, QPel : No
Format settings, GMC : No warppoints
Format settings, Matrix : Default (H.263)
Muxing mode : Packed bitstream
Codec ID : XVID
Codec ID/Hint : XviD
Duration : 38 min 43 s
Bit rate : 966 kb/s
Width : 720 pixels
Height : 576 pixels
Display aspect ratio : 5:4
Frame rate : 25.000 FPS
Standard : PAL
Color space : YUV
Chroma subsampling : 4:2:0
Bit depth : 8 bits
Scan type : Progressive
Compression mode : Lossy
Bits/(Pixel*Frame) : 0.093
Stream size : 268 MiB (90%)
Writing library : XviD 1.1.2 (UTC 2006-11-01)
Audio
ID : 1
Format : MPEG Audio
Format version : Version 1
Format profile : Layer 3
Mode : Joint stereo
Mode extension : MS Stereo
Codec ID : 55
Codec ID/Hint : MP3
Duration : 38 min 43 s
Bit rate mode : Constant
Bit rate : 96.0 kb/s
Channel(s) : 2 channels
Sampling rate : 44.1 kHz
Compression mode : Lossy
Stream size : 26.6 MiB (9%)
Alignment : Split accross interleaves
Interleave, duration : 40 ms (1.00 video frame)
Interleave, preload duratio : 500 ms
Вы не можете начинать темы
Вы не можете отвечать на сообщения
Вы не можете редактировать свои сообщения
Вы не можете удалять свои сообщения
Вы не можете голосовать в опросах
Вы не можете прикреплять файлы к сообщениям
Вы можете скачивать файлы
!ВНИМАНИЕ!

Сайт не предоставляет электронные версии произведений, а занимается лишь коллекционированием и каталогизацией ссылок, присылаемых и публикуемых на форуме нашими читателями. Если вы являетесь правообладателем какого-либо представленного материала и не желаете, чтобы ссылка на него находилась в нашем каталоге, свяжитесь с нами, и мы незамедлительно удалим ее. Файлы для обмена на трекере предоставлены пользователями сайта, и администрация не несет ответственности за их содержание. Просьба не заливать файлы, защищенные авторскими правами, а также файлы нелегального содержания!

Искали программы, игры, дополнения, музыка mp3, аниме, аудио книги, журналы? Добро пожаловать на свободный торрент трекер Torrents, у нас можно скачать бесплатно, без смс и регистрации и прочих ограничений лучшие, отборные сборки программ, игр. Скачать торрентом не составит труда даже не опытному пользователю. Раздачи ежедневно обновляются, только лучшие и качественные раздачи, подробные описания и скриншоты. Огромная коллекция программ для работы со звуком, графикой, дизайном, а так же множество плагинов и инструментов к ним с подробной инструкцией и рекомендациями. Прошивки для навигаторов, карты. Разнообразные игры, для Windows, Linux. В коллекцие есть и старые игры любых жанров, Rpg, Action, Shooter, strategy Множество дополнений, модификаций, сценариев для популярных игр в жанре экш, рпг, гонки, стратегии, логические игры. Множество аддонов и сценариев для Microsoft Flight Simulator Большая коллекция книг, учебников. Если нет возможности купить печатное издание - смело скачивайте цифровую версию книги или, быть может, журнала. Не любите читать - можно загрузить бесплатно аудикнигу. Для веб дизайнеров и программистов так же найдется множество специализированного софта, таких как: редакторы с подсветкой, среды программирования, компоненты, системы управления базами данных, разнообразные скрипты и шаблоны. Не так давно у нас появился материал для автолюбителей и владельцев мото - оригинальные и неоригинальные каталоги запчастей, книги и журналы по ремонту и обслуживанию, видеоуроки, статьи по чип тюнингу, прошивкам. Процедура получения контента элементарная, достаточно просто скачать торрент файл и добавить его в загрузку в вашем торрент клиенте. Если у вас нет специального торрент клиента, вы можете его скачать у нас.

Sitemap