Адмирал Макаров. 36 дней войны (2 серии из 2) (Анна Голикова) [2013, Документальный, война, история, флот, биография, SATRip] 

Цитировать
Адмирал Макаров. 36 дней войны (2 серии из 2)
Дата/Год выпуска: 2013
Страна: Россия, ООО «ВИБ-фильм»
Жанр: Документальный, война, история, флот, биография
Продолжительность: 2 х ~ 00:26:00
Перевод: Не требуется
Режиссер: Анна Голикова
Телеканал: ТРО
Описание: Фильм о легендарном вице-адмирале Степане Осиповиче Макарове (1849-1904), который был полярным исследователем, океанографом, изобретателем новых видов вооружений, прославившийся в турецкой и японской морских войнах. В феврале 1904 года С.О. Макаров был назначен командующим Тихоокеанской эскадрой. Руководил действиями кораблей при обороне Порт-Артура. Погиб 31 марта на броненосце «Петропавловск», подорвавшемся на японской мине.
Доп. информация: Авторство релиза - alf62

качество: SATRip
формат: AVI
Видео: 720x400 (1.80:1), 25 fps, XviD build 73 ~1800 kbps avg, 0.25 bit/pixel
Аудио: 48 kHz, AC3 Dolby Digital, 2/0 (L,R) ch, ~192.00 kbps avg

MediaInfo

Адмирал.Макаров.36.дней.войны.(1.серия.из.2).2013.XviD.SATRip.alf62.aviФормат                                   : AVIФормат/Информация                        : Audio Video InterleaveРазмер файла                             : 372 МбайтПродолжительность                        : 25 м.Общий поток                              : 2002 Кбит/секПрограмма кодирования                    : VirtualDubMod 1.5.10.3 | www.virtualdub-fr.org || (build 2550/release)Библиотека кодирования                   : VirtualDubMod build 2550/release
ВидеоИдентификатор : 0Формат : MPEG-4 VisualПрофиль формата : Advanced Simple@L5Параметр BVOP формата : 2Параметр QPel формата : НетПараметр GMC формата : Без точки переходаПараметр матрицы формата : Default (MPEG)Идентификатор кодека : XVIDИдентификатор кодека/Подсказка : XviDПродолжительность : 25 м.Битрейт : 1800 Кбит/секШирина : 720 пикселейВысота : 400 пикселейСоотношение сторон : 16:9Частота кадров : 25,000 кадров/секЦветовое пространство : YUVСубдискретизация насыщенности : 4:2:0Битовая глубина : 8 битТип развёртки : ПрогрессивнаяМетод сжатия : С потерямиБит/(Пиксели*Кадры) : 0.250Размер потока : 334 Мбайт (90%)Библиотека кодирования : XviD 73
АудиоИдентификатор : 1Формат : AC-3Формат/Информация : Audio Coding 3Расширение режима : CM (complete main)Параметр Endianness формата : BigИдентификатор кодека : 2000Продолжительность : 25 м.Вид битрейта : ПостоянныйБитрейт : 192 Кбит/секКаналы : 2 каналаРасположение каналов : Front: L RЧастота : 48,0 КГцБитовая глубина : 16 битМетод сжатия : С потерямиРазмер потока : 35,7 Мбайт (10%)Выравнивание : Разделение по промежуткамПродолжительность промежутка : 40 мс. (1,00 видеокадр)Время предзагрузки промежутка : 500 мс.
Вы не можете начинать темы
Вы не можете отвечать на сообщения
Вы не можете редактировать свои сообщения
Вы не можете удалять свои сообщения
Вы не можете голосовать в опросах
Вы не можете прикреплять файлы к сообщениям
Вы можете скачивать файлы
!ВНИМАНИЕ!

Сайт не предоставляет электронные версии произведений, а занимается лишь коллекционированием и каталогизацией ссылок, присылаемых и публикуемых на форуме нашими читателями. Если вы являетесь правообладателем какого-либо представленного материала и не желаете, чтобы ссылка на него находилась в нашем каталоге, свяжитесь с нами, и мы незамедлительно удалим ее. Файлы для обмена на трекере предоставлены пользователями сайта, и администрация не несет ответственности за их содержание. Просьба не заливать файлы, защищенные авторскими правами, а также файлы нелегального содержания!

Искали программы, игры, дополнения, музыка mp3, аниме, аудио книги, журналы? Добро пожаловать на свободный торрент трекер Torrents, у нас можно скачать бесплатно, без смс и регистрации и прочих ограничений лучшие, отборные сборки программ, игр. Скачать торрентом не составит труда даже не опытному пользователю. Раздачи ежедневно обновляются, только лучшие и качественные раздачи, подробные описания и скриншоты. Огромная коллекция программ для работы со звуком, графикой, дизайном, а так же множество плагинов и инструментов к ним с подробной инструкцией и рекомендациями. Прошивки для навигаторов, карты. Разнообразные игры, для Windows, Linux. В коллекцие есть и старые игры любых жанров, Rpg, Action, Shooter, strategy Множество дополнений, модификаций, сценариев для популярных игр в жанре экш, рпг, гонки, стратегии, логические игры. Множество аддонов и сценариев для Microsoft Flight Simulator Большая коллекция книг, учебников. Если нет возможности купить печатное издание - смело скачивайте цифровую версию книги или, быть может, журнала. Не любите читать - можно загрузить бесплатно аудикнигу. Для веб дизайнеров и программистов так же найдется множество специализированного софта, таких как: редакторы с подсветкой, среды программирования, компоненты, системы управления базами данных, разнообразные скрипты и шаблоны. Не так давно у нас появился материал для автолюбителей и владельцев мото - оригинальные и неоригинальные каталоги запчастей, книги и журналы по ремонту и обслуживанию, видеоуроки, статьи по чип тюнингу, прошивкам. Процедура получения контента элементарная, достаточно просто скачать торрент файл и добавить его в загрузку в вашем торрент клиенте. Если у вас нет специального торрент клиента, вы можете его скачать у нас.

Sitemap