По волне моей памяти. Чёртово колесо (Олег Нестеров) (Эфир от 28.07.2017) [2013, Ток-шоу, Интервью, Телепередача, DVB] 

Цитировать
По волне моей памяти. Чёртово колесо (Олег Нестеров)Страна: Россия
Жанр: Ток-шоу, Интервью, Телепередача
Продолжительность: 00:53:18
Язык: Русский
Год выпуска: 2013 г.
Выпущено: Россия, ЗАО «Первый канал. Всемирная сеть».
Описание: Эксклюзивные интервью с легендарными музыкантами. Новые встречи с любимыми героями советской и российской музыкальной сцены.
Это - непринужденный разговор о любимой музыке, воспитавшей несколько поколений - с ее создателями. Те люди, которые формировали музыкальное мировоззрение целой страны расскажут нам о своей работе, интересных историях, связанных с самыми известными произведениями и поделятся планами на будущее-Гости выпуска: Наталья Грешищева и Андрей Гансон.-Ведущий: Олег Нестеров.-Источник: Собственный рип
Доп. информация: Рип чистый. Без посторонних надписей. Выкладывается как есть.

Качество: DVB
Контейнер: TS
Видео кодек: H.264
Аудио кодек: MP2
Видео: AVC, 720x576 (@1024x576), 16:9, 25.00fps, 2 242 Kbps, 0.216 bit/pixel
Аудио: MPEG Audio 48000Hz stereo 192 Кбит/сек

Отчёт MediaInfo

Общее
Идентификатор : 1 (0x1)
Полное имя : G:\Раздачи\Программы, передачи, шоу, спектакли\По волне моей памяти\По волне моей памяти. Чёртово колесо (2013, DVB, Ток-шоу, Интервью, Эфир от 28.07.2017) (by Nokia5150).ts
Формат : MPEG-TS
Размер файла : 977 Мбайт
Продолжительность : 53 м.
Режим общего битрейта : Переменный
Общий поток : 2562 Кбит/сек
Видео
Идентификатор : 2607 (0xA2F)
Идентификатор меню : 607 (0x25F)
Формат : AVC
Формат/Информация : Advanced Video Codec
Профиль формата : Main@L3
Параметр CABAC формата : Да
Параметр ReFrames формата : 3 кадра
Идентификатор кодека : 27
Продолжительность : 53 м.
Битрейт : 2242 Кбит/сек
Ширина : 720 пикселей
Высота : 576 пикселей
Соотношение сторон : 16:9
Частота кадров : 25,000 кадров/сек
Стандарт вещания : Component
Цветовое пространство : YUV
Субдискретизация насыщенности : 4:2:0
Битовая глубина : 8 бит
Тип развёртки : Чересстрочная
Порядок развёртки : Верхнее поле первое
Бит/(Пиксели*Кадры) : 0.216
Размер потока : 855 Мбайт (87%)
colour_range : Limited
Основные цвета : BT.601 PAL
Характеристики трансфера : BT.470 System B, BT.470 System G
Коэффициенты матрицы : BT.601
Аудио
Идентификатор : 3607 (0xE17)
Идентификатор меню : 607 (0x25F)
Формат : MPEG Audio
Версия формата : Version 1
Профиль формата : Layer 2
Идентификатор кодека : 3
Продолжительность : 53 м.
Вид битрейта : Постоянный
Битрейт : 192 Кбит/сек
Каналы : 2 канала
Частота : 48,0 КГц
Метод сжатия : С потерями
Задержка видео : -120 мс.
Размер потока : 73,2 Мбайт (7%)
Язык : English

Скриншоты (анаморф)

Скриншоты

Скринлист


Вы не можете начинать темы
Вы не можете отвечать на сообщения
Вы не можете редактировать свои сообщения
Вы не можете удалять свои сообщения
Вы не можете голосовать в опросах
Вы не можете прикреплять файлы к сообщениям
Вы можете скачивать файлы
!ВНИМАНИЕ!

Сайт не предоставляет электронные версии произведений, а занимается лишь коллекционированием и каталогизацией ссылок, присылаемых и публикуемых на форуме нашими читателями. Если вы являетесь правообладателем какого-либо представленного материала и не желаете, чтобы ссылка на него находилась в нашем каталоге, свяжитесь с нами, и мы незамедлительно удалим ее. Файлы для обмена на трекере предоставлены пользователями сайта, и администрация не несет ответственности за их содержание. Просьба не заливать файлы, защищенные авторскими правами, а также файлы нелегального содержания!

Искали программы, игры, дополнения, музыка mp3, аниме, аудио книги, журналы? Добро пожаловать на свободный торрент трекер Torrents, у нас можно скачать бесплатно, без смс и регистрации и прочих ограничений лучшие, отборные сборки программ, игр. Скачать торрентом не составит труда даже не опытному пользователю. Раздачи ежедневно обновляются, только лучшие и качественные раздачи, подробные описания и скриншоты. Огромная коллекция программ для работы со звуком, графикой, дизайном, а так же множество плагинов и инструментов к ним с подробной инструкцией и рекомендациями. Прошивки для навигаторов, карты. Разнообразные игры, для Windows, Linux. В коллекцие есть и старые игры любых жанров, Rpg, Action, Shooter, strategy Множество дополнений, модификаций, сценариев для популярных игр в жанре экш, рпг, гонки, стратегии, логические игры. Множество аддонов и сценариев для Microsoft Flight Simulator Большая коллекция книг, учебников. Если нет возможности купить печатное издание - смело скачивайте цифровую версию книги или, быть может, журнала. Не любите читать - можно загрузить бесплатно аудикнигу. Для веб дизайнеров и программистов так же найдется множество специализированного софта, таких как: редакторы с подсветкой, среды программирования, компоненты, системы управления базами данных, разнообразные скрипты и шаблоны. Не так давно у нас появился материал для автолюбителей и владельцев мото - оригинальные и неоригинальные каталоги запчастей, книги и журналы по ремонту и обслуживанию, видеоуроки, статьи по чип тюнингу, прошивкам. Процедура получения контента элементарная, достаточно просто скачать торрент файл и добавить его в загрузку в вашем торрент клиенте. Если у вас нет специального торрент клиента, вы можете его скачать у нас.

Sitemap