Жизнь после карьеры в Порно 2 / After Porn Ends 2 (Брайс Вагонер / Bryce Wagoner) [2017, США, Документальный, WEB-DLRip] VO (Вадим Назаров) 

Цитировать
Жизнь после карьеры в Порно 2 / After Porn Ends 2
Страна: США
Студия: Karbonshark TV, Pirates Entertainment, WeBros Entertainment
Жанр: Документальный
Год выпуска: 2017
Продолжительность: 01:39:27
Перевод: Одноголосый (закадровый) - Вадим Назаров
Субтитры: Нет
Оригинальная аудиодорожка: Нет
Режиссёр: Брайс Вагонер / Bryce Wagoner
В ролях: Бриттани Эндрюс, Лиза Энн, Дэнни Ди, Обри Голд, Даррен Джеймс, Джонни Кийес, Чейси Лэйн, Бад Ли, Джанин Линдмюльдер, Венус Люкс, Джинджер Линн Аллен, Ариана Мари, Гэри Дин Орона, Хершел Сэвадж, Джорджина Спелвин, Табита Стивенс
Описание: Фильм знакомит с одними из самых старых звезд индустрии для взрослых и рассказывает об их жизни по завершении карьеры. Кто-то принимает её с гордостью и без сожаления, как путь к обретению гармонии и счастья в жизни. Других карьера в порно привела к отчаянию и страданиям, и они всеми силами пытаются избавиться от последствий работы в индустрии.
Доп. информация:
Автор релиза -
Заказ перевода у Вадима Назарова (июнь 2017) - ylnian
За сборку дороги спасибо rammzez
Источник для рипа - After.Porn.Ends.2.2017.720p.WEB-DL.DD5.1.H.264-Coo7
Рекламы нет!
Сэмпл: http://yadi.sk/i/2KS7iRZh3LXRNh
Качество видео: WEB-DLRip
Формат видео: AVI
Видео: XviD, 720x400 (16:9), 23.976 fps, 1703 kbps, 0.247 bit/pixel
Аудио: Русский АС3, 48000 Гц, 6ch, 384 kbps

MediaInfo

Общее
Полное имя : D:\After.Porn.Ends.2.2017.WEBDLRip-ylnian.avi
Формат : AVI
Формат/Информация : Audio Video Interleave
Размер файла : 1,46 Гбайт
Продолжительность : 1 ч. 39 м.
Общий поток : 2097 Кбит/сек
Название фильма : After.Porn.Ends.2.2017.WEBDLRip-ylnian
Программа кодирования : VirtualDubMod 1.5.10.2 (build 2540/release)
Библиотека кодирования : VirtualDubMod build 2540/release
Видео
Идентификатор : 0
Формат : MPEG-4 Visual
Профиль формата : Advanced Simple@L5
Параметр BVOP формата : 1
Параметр QPel формата : Нет
Параметр GMC формата : Без точки перехода
Параметр матрицы формата : Default (MPEG)
Идентификатор кодека : XVID
Идентификатор кодека/Подсказка : XviD
Продолжительность : 1 ч. 39 м.
Битрейт : 1703 Кбит/сек
Ширина : 720 пикселей
Высота : 400 пикселей
Соотношение сторон : 16:9
Частота кадров : 23,976 (24000/1001) кадра/сек
Цветовое пространство : YUV
Субдискретизация насыщенности : 4:2:0
Битовая глубина : 8 бит
Тип развёртки : Прогрессивная
Метод сжатия : С потерями
Бит/(Пиксели*Кадры) : 0.247
Размер потока : 1,18 Гбайт (81%)
Библиотека кодирования : XviD 67
Аудио
Идентификатор : 1
Формат : AC-3
Формат/Информация : Audio Coding 3
Параметр Endianness формата : Big
Идентификатор кодека : 2000
Продолжительность : 1 ч. 39 м.
Вид битрейта : Постоянный
Битрейт : 384 Кбит/сек
Каналы : 6 каналов
Расположение каналов : Front: L C R, Side: L R, LFE
Частота : 48,0 КГц
Частота кадров : 31,250 кадров/сек (1536 spf)
Битовая глубина : 16 бит
Метод сжатия : С потерями
Размер потока : 273 Мбайт (18%)
Выравнивание : Разделение по промежуткам
Продолжительность промежутка : 42 мс. (1,00 видеокадр)
Время предзагрузки промежутка : 500 мс.
Заголовок : AVO - Nazarov
ServiceKind/String : Complete Main
Вы не можете начинать темы
Вы не можете отвечать на сообщения
Вы не можете редактировать свои сообщения
Вы не можете удалять свои сообщения
Вы не можете голосовать в опросах
Вы не можете прикреплять файлы к сообщениям
Вы можете скачивать файлы
!ВНИМАНИЕ!

Сайт не предоставляет электронные версии произведений, а занимается лишь коллекционированием и каталогизацией ссылок, присылаемых и публикуемых на форуме нашими читателями. Если вы являетесь правообладателем какого-либо представленного материала и не желаете, чтобы ссылка на него находилась в нашем каталоге, свяжитесь с нами, и мы незамедлительно удалим ее. Файлы для обмена на трекере предоставлены пользователями сайта, и администрация не несет ответственности за их содержание. Просьба не заливать файлы, защищенные авторскими правами, а также файлы нелегального содержания!

Искали программы, игры, дополнения, музыка mp3, аниме, аудио книги, журналы? Добро пожаловать на свободный торрент трекер Torrents, у нас можно скачать бесплатно, без смс и регистрации и прочих ограничений лучшие, отборные сборки программ, игр. Скачать торрентом не составит труда даже не опытному пользователю. Раздачи ежедневно обновляются, только лучшие и качественные раздачи, подробные описания и скриншоты. Огромная коллекция программ для работы со звуком, графикой, дизайном, а так же множество плагинов и инструментов к ним с подробной инструкцией и рекомендациями. Прошивки для навигаторов, карты. Разнообразные игры, для Windows, Linux. В коллекцие есть и старые игры любых жанров, Rpg, Action, Shooter, strategy Множество дополнений, модификаций, сценариев для популярных игр в жанре экш, рпг, гонки, стратегии, логические игры. Множество аддонов и сценариев для Microsoft Flight Simulator Большая коллекция книг, учебников. Если нет возможности купить печатное издание - смело скачивайте цифровую версию книги или, быть может, журнала. Не любите читать - можно загрузить бесплатно аудикнигу. Для веб дизайнеров и программистов так же найдется множество специализированного софта, таких как: редакторы с подсветкой, среды программирования, компоненты, системы управления базами данных, разнообразные скрипты и шаблоны. Не так давно у нас появился материал для автолюбителей и владельцев мото - оригинальные и неоригинальные каталоги запчастей, книги и журналы по ремонту и обслуживанию, видеоуроки, статьи по чип тюнингу, прошивкам. Процедура получения контента элементарная, достаточно просто скачать торрент файл и добавить его в загрузку в вашем торрент клиенте. Если у вас нет специального торрент клиента, вы можете его скачать у нас.

Sitemap