Тачки Рыбакина / Тачки Рыбакина XXL / Сезон: 1 / Выпуски: 1-12 (12) [2012-2014, Россия, Юмор, DVB] 

Цитировать
Тачки Рыбакина / Тачки Рыбакина XXL- Страна: Россия
Режиссер: Андрей Шавкеро
Ведущий: Андрей Рыбакин
Жанр: Юмор
Год выпуска: 2012-2014
Продолжительность:
Тачки Рыбакина: 8х~00:12:30
Тачки Рыбакина XXL: 4х~00:20:00
Перевод: Не требуется
Субтитры: Отсутствуют
Описание: Представьте себе гибрид легендарной программы «Топ Гир», в которой профессионально тестируют автомобили, и «Тачки на прокачку» — превращения табуретки в машину мечты. Ведущий Андрей Рыбакин подвергает подержанные автомобили различным испытаниям. Например, превращает старенькую Volvo в настоящую сауну, а AUDI — в камеру для эвтаназии. В результате экспериментов Рыбакина все тачки уничтожаются самым изуверским образом. Ни одному авто не удается выжить!

Запись с канала 2Х2

Качество видео: DVB
Формат видео: MPEG
Видео: MPEG Video 2, 3 576 Kbps, 720х576 (4:30), 25.000 fps
Аудио: MPEG Audio Layer 2, 192 Kbps, 2 channels, 48.0 KHz

Ведущий Андрей Рыбакин, немного информации:

Родился 02.11.1989, умер (убили) в съемной квартире в Москве 12.07.2014.
Спустя 4 дня отсутствия, Андрей Викторович Рыбакин был найден 15.07.2014 мертвым у себя на съемной квартире. Причиной смерти стали удары тупым предметом по затылку. Ты жив, пока тебя помнят...а помнить мы будем всегда...
Помним, любим, скорбим...

Выпуски:

Тачки Рыбакина XXL:
01- Ваз 2106
02- Газ 31029
03- Ока
04- Ваз 2109
Тачки Рыбакина:
01- Ford scorpio
02-
03- Fiat punto
04- Dey nexia
05- Nissan 100 NX
06- Volvo 740
07- Wolchvagen golf 2
08- Audi 80

MI:

General
Complete name : E:\Фильмы\Тачки Рыбакина\s01e01.mpeg
Format : MPEG-PS
File size : 334 MiB
Duration : 12mn 7s
Overall bit rate mode : Variable
Overall bit rate : 3 844 Kbps
Video
ID : 224 (0xE0)
Format : MPEG Video
Format version : Version 2
Format profile : Main@Main
Format settings, BVOP : No
Format settings, Matrix : Custom
Format settings, GOP : Variable
Duration : 12mn 7s
Bit rate mode : Variable
Bit rate : 3 576 Kbps
Maximum bit rate : 15.0 Mbps
Width : 720 pixels
Height : 576 pixels
Display aspect ratio : 4:3
Frame rate : 25.000 fps
Standard : PAL
Color space : YUV
Chroma subsampling : 4:2:0
Bit depth : 8 bits
Scan type : Interlaced
Scan order : Top Field First
Compression mode : Lossy
Bits/(Pixel*Frame) : 0.345
Time code of first frame : 00:00:00:00
Time code source : Group of pictures header
Stream size : 310 MiB (93%)
Audio
ID : 192 (0xC0)
Format : MPEG Audio
Format version : Version 1
Format profile : Layer 2
Duration : 12mn 7s
Bit rate mode : Constant
Bit rate : 192 Kbps
Channel(s) : 2 channels
Sampling rate : 48.0 KHz
Compression mode : Lossy
Delay relative to video : 21ms
Stream size : 16.7 MiB (5%)

Скриншоты

Еще программы с Андреем Рыбакиным:

Пародия на Топ Гир / Пародия на TopGear
Езда рулю
Спасибо за предоставление материала и за помощь в оформлении: #Antisnl#
Вы не можете начинать темы
Вы не можете отвечать на сообщения
Вы не можете редактировать свои сообщения
Вы не можете удалять свои сообщения
Вы не можете голосовать в опросах
Вы не можете прикреплять файлы к сообщениям
Вы можете скачивать файлы
!ВНИМАНИЕ!

Сайт не предоставляет электронные версии произведений, а занимается лишь коллекционированием и каталогизацией ссылок, присылаемых и публикуемых на форуме нашими читателями. Если вы являетесь правообладателем какого-либо представленного материала и не желаете, чтобы ссылка на него находилась в нашем каталоге, свяжитесь с нами, и мы незамедлительно удалим ее. Файлы для обмена на трекере предоставлены пользователями сайта, и администрация не несет ответственности за их содержание. Просьба не заливать файлы, защищенные авторскими правами, а также файлы нелегального содержания!

Искали программы, игры, дополнения, музыка mp3, аниме, аудио книги, журналы? Добро пожаловать на свободный торрент трекер Torrents, у нас можно скачать бесплатно, без смс и регистрации и прочих ограничений лучшие, отборные сборки программ, игр. Скачать торрентом не составит труда даже не опытному пользователю. Раздачи ежедневно обновляются, только лучшие и качественные раздачи, подробные описания и скриншоты. Огромная коллекция программ для работы со звуком, графикой, дизайном, а так же множество плагинов и инструментов к ним с подробной инструкцией и рекомендациями. Прошивки для навигаторов, карты. Разнообразные игры, для Windows, Linux. В коллекцие есть и старые игры любых жанров, Rpg, Action, Shooter, strategy Множество дополнений, модификаций, сценариев для популярных игр в жанре экш, рпг, гонки, стратегии, логические игры. Множество аддонов и сценариев для Microsoft Flight Simulator Большая коллекция книг, учебников. Если нет возможности купить печатное издание - смело скачивайте цифровую версию книги или, быть может, журнала. Не любите читать - можно загрузить бесплатно аудикнигу. Для веб дизайнеров и программистов так же найдется множество специализированного софта, таких как: редакторы с подсветкой, среды программирования, компоненты, системы управления базами данных, разнообразные скрипты и шаблоны. Не так давно у нас появился материал для автолюбителей и владельцев мото - оригинальные и неоригинальные каталоги запчастей, книги и журналы по ремонту и обслуживанию, видеоуроки, статьи по чип тюнингу, прошивкам. Процедура получения контента элементарная, достаточно просто скачать торрент файл и добавить его в загрузку в вашем торрент клиенте. Если у вас нет специального торрент клиента, вы можете его скачать у нас.

Sitemap