Блудливая Калифорния / Калифрения / Californication / Сезон: 1 / Серии: 1-12 (12) (Том Капинос / Tom Kapinos) [2007, США, Комедия, драма, BDRip 720p] Dub (1TV) + MVO (2х2) + 3xDVO (MTV, ДТВ, OTHFilm) + 2xVO (Novafilm, KM) + Dub (1+1, Ukr) + Original 

Цитировать
Блудливая Калифорния / Californication- Оригинальное название: Californication
Русское название: Блудливая Калифорния
Год выпуска: 2007
Страна: США
Жанр: Комедия, драма
Продолжительность серии: ~30 мин
Перевод:
  • Профессиональный (дублированный) Первый Канал |студия AB-видео|

  • Профессиональный (многоголосый закадровый) 2x2 |студия Кравец|

  • Профессиональный (двухголосый закадровый) МТВ |студия Новамедиа|

  • Профессиональный (двухголосый закадровый) ДТВ

  • Профессиональный (одноголосый закадровый) Новафильм |Александр Дасевич|

  • Профессиональный (одноголосый закадровый) Квадрат Малевича |MaxMeister|

  • Любительский (двухголосый закадровый) OTHFilm

  • Профессиональный (дублированный) 1+1 (Украинский)
Субтитры: английские, английские (SDH)
Сэмпл: скачать
Производтсво: Showtime
Режиссёр: Том Капинос
В ролях: Дэвид Духовны, Наташа МакЭлхоун, Мэделин Мартин, Эван Хандлер, Памела Адлон и другие.
Описание: Талантливый и некогда известный писатель Хэнк Муди переживает творческий кризис. Отсутствие вдохновения он с лихвой компенсирует алкоголем, наркотиками и красивыми женщинами. Подкупающая прямота, чувство юмора и яркая харизма привлекают к нему сердца калифорнийских красавиц. Но его сердце занято — он любящий отец своей 13-летней дочери, и всё ещё влюблён в её маму — свою бывшую подружку…
-
  • Дорожки Первого канала и ДТВ были использованы с качественных исходников, а именно - с русских лицензионных дисков (издание Нового Диска и издание Universal СНГ) из личного архива. Новый Диск выпустили Кали с моно звуком, хотя на Первом показывали все сезоны в стерео, если кто-то в свое время записывал на ресивер/IPTV 1 сезон с Первого - просьба заделиться исходниками (то, что на трекере - не предлагать, звук по спектру там хуже + пережат).

  • Насчёт украинской дорожки: в сети имеются псевдо 5.1 дороги, сведённые "мэтрами". Зачем-то был засунут моно звук в центр, вроде как теперь появились исходники с 2+2 и в раздаче были использованы именно они.
  • Дорожек куча, поэтому, если где-то найдете жёсткий рассинхон - не убивайте, некоторые дорожки были уже сведены (например МТВ) и искать, где предыдущие релизеры склеивали дороги - нереально. Исправлю рассинхрон, если таковой обнаружится.
-Сведение всех дорожек SerGoLeOne.
Запись дорожек с 2х2 - Antisnl и Beer kolesik Drinkers, помощь с релизом - HPotter.-Дорожка MTV-Novamedia взята из сети. Качество плохое, вряд ли есть такие люди, которые записывали в своё время с MTV, но всё-таки если есть - пишите, делитесь, пересведём.
К сожалению, в своё время был упущен 1 сезон Кали на телеканале SET. Если у кого имеются записи - поделитесь пожалуйста.
В сети отсутсвуют украинские дорожки на 8, 10, 12 серии. Если вы записывали - поделитесь пожалуйста.
-Комментарии в 1-й серии.
Сохранены оригинальные чаптеры как на Blu-ray.

-cсылка на предыдущие и альтернативные раздачи-Качество: BDRip 720p
Формат: MKV
Видео: 1278x720 (16:9), 23.976 fps, x264, ~9200 kbps 0.423 bit/pixel
Аудио 1 (Первый Канал): Dolby AC3 48 kHz stereo 192 kbps
Аудио 2 (2х2): Dolby AC3 48 kHz stereo 192 kbps
Аудио 3 (МТВ): Dolby AC3 48 kHz stereo 192 kbps
Аудио 4 (ДТВ): Dolby AC3 48 kHz stereo 192 kbps
Аудио 5 (Новафильм): Dolby AC3, 48 kHz, 6 ch, 384 kbps
Аудио 6 (Квадрат малевича): Dolby AC3 48 kHz stereo 192 kbps
Аудио 7 (OTHFilm): Dolby AC3 48 kHz stereo 192 kbps [1-6 серии]
Аудио 8 (1+1, Украинский): Dolby AC3 48 kHz stereo 192 kbps [1-7, 9, 11 серии]
Аудио 9 (оригинал): Dolby AC3, 48 kHz, 6 ch, 448 kbps
Аудио 10 (комментарии): Dolby AC3 48 kHz stereo 224 kbps [1 серия]

Скриншоты

-

MI

General
Unique ID                      : 224315253295814884388480502792271628244 (0xA8C18BDC512BB750BA24C3E160FF07D4)
Complete name                  : E:\HD Video\Californication.S01.720.BluRay.Rus.Ukr.Eng.HDCLUB-SerGoLeOne\Californication.S01E01.Pilot.720p.BluRay.Rus.Ukr.Eng.HDCLUB-SerGoLeOne.mkv
Format                         : Matroska
Format version                 : Version 4 / Version 2
File size                      : 2.81 GiB
Duration                       : 33mn 33s
Overall bit rate               : 12.0 Mbps
Encoded date                   : UTC 2014-07-07 12:42:28
Writing application            : mkvmerge v7.0.0 ('Where We Going') 64bit built on Jun  9 2014 15:16:27
Writing library                : libebml v1.3.0 + libmatroska v1.4.1
_STATISTICS_WRITING_APP        : mkvmerge v7.0.0 ('Where We Going') 64bit built on Jun  9 2014 15:16:27
_STATISTICS_WRITING_DATE_UTC   : 2014-07-07 12:42:28
_STATISTICS_TAGS               : BPS DURATION NUMBER_OF_FRAMES NUMBER_OF_BYTES
DURATION                       : 00:33:05.216000000
NUMBER_OF_FRAMES               : 62038
NUMBER_OF_BYTES                : 47645184
Video
ID                             : 1
Format                         : AVC
Format/Info                    : Advanced Video Codec
Format profile                 : High@L4.0
Format settings, CABAC         : Yes
Format settings, ReFrames      : 9 frames
Codec ID                       : V_MPEG4/ISO/AVC
Duration                       : 33mn 33s
Bit rate                       : 9 341 Kbps
Width                          : 1 278 pixels
Height                         : 720 pixels
Display aspect ratio           : 16:9
Frame rate                     : 23.976 fps
Color space                    : YUV
Chroma subsampling             : 4:2:0
Bit depth                      : 8 bits
Scan type                      : Progressive
Bits/(Pixel*Frame)             : 0.423
Stream size                    : 2.19 GiB (78%)
Title                          : Californication. Season 1 Episode 01 "Pilot / Пилотная серия"
Writing library                : x264 core 138 r2358kMod 9e941d1
Encoding settings              : cabac=1 / ref=9 / deblock=1:-3:-3 / analyse=0x3:0x133 / me=umh / subme=10 / psy=1 / fade_compensate=0.00 / psy_rd=1.14:0.00 / mixed_ref=1 / me_range=48 / chroma_me=1 / trellis=2 / 8x8dct=1 / cqm=0 / deadzone=21,11 / fast_pskip=0 / chroma_qp_offset=-2 / threads=12 / lookahead_threads=2 / sliced_threads=0 / nr=0 / decimate=1 / interlaced=0 / bluray_compat=0 / constrained_intra=0 / bframes=7 / b_pyramid=2 / b_adapt=2 / b_bias=0 / direct=3 / weightb=1 / open_gop=0 / weightp=2 / keyint=250 / keyint_min=23 / scenecut=40 / intra_refresh=0 / rc=crf / mbtree=0 / crf=17.5000 / qcomp=0.60 / qpmin=0 / qpmax=69 / qpstep=4 / ip_ratio=1.30 / pb_ratio=1.20 / aq=1:0.80
Language                       : English
Default                        : Yes
Forced                         : No
_STATISTICS_WRITING_APP        : mkvmerge v7.0.0 ('Where We Going') 64bit built on Jun  9 2014 15:16:27
_STATISTICS_WRITING_DATE_UTC   : 2014-07-07 12:42:28
_STATISTICS_TAGS               : BPS DURATION NUMBER_OF_FRAMES NUMBER_OF_BYTES
DURATION                       : 00:33:05.192000000
NUMBER_OF_FRAMES               : 47597
NUMBER_OF_BYTES                : 2418390398
Audio #1
ID                             : 2
Format                         : AC-3
Format/Info                    : Audio Coding 3
Mode extension                 : CM (complete main)
Format settings, Endianness    : Big
Codec ID                       : A_AC3
Duration                       : 33mn 33s
Bit rate mode                  : Constant
Bit rate                       : 192 Kbps
Channel(s)                     : 2 channels
Channel positions              : Front: L R
Sampling rate                  : 48.0 KHz
Bit depth                      : 16 bits
Compression mode               : Lossy
Stream size                    : 46.1 MiB (2%)
Title                          : AC3 2.0 @ 192 kbps - Первый канал, Дубляж
Language                       : Russian
Default                        : Yes
Forced                         : No
Audio #2
ID                             : 3
Format                         : AC-3
Format/Info                    : Audio Coding 3
Mode extension                 : CM (complete main)
Format settings, Endianness    : Big
Codec ID                       : A_AC3
Duration                       : 33mn 33s
Bit rate mode                  : Constant
Bit rate                       : 192 Kbps
Channel(s)                     : 2 channels
Channel positions              : Front: L R
Sampling rate                  : 48.0 KHz
Bit depth                      : 16 bits
Compression mode               : Lossy
Stream size                    : 46.1 MiB (2%)
Title                          : AC3 2.0 @ 192 kbps - 2x2, Кравец
Language                       : Russian
Default                        : No
Forced                         : No
Audio #3
ID                             : 4
Format                         : AC-3
Format/Info                    : Audio Coding 3
Mode extension                 : CM (complete main)
Format settings, Endianness    : Big
Codec ID                       : A_AC3
Duration                       : 33mn 33s
Bit rate mode                  : Constant
Bit rate                       : 192 Kbps
Channel(s)                     : 2 channels
Channel positions              : Front: L R
Sampling rate                  : 48.0 KHz
Bit depth                      : 16 bits
Compression mode               : Lossy
Stream size                    : 46.1 MiB (2%)
Title                          : AC3 2.0 @ 192 kbps - MTV, NovaMedia
Language                       : Russian
Default                        : No
Forced                         : No
Audio #4
ID                             : 5
Format                         : AC-3
Format/Info                    : Audio Coding 3
Mode extension                 : CM (complete main)
Format settings, Endianness    : Big
Codec ID                       : A_AC3
Duration                       : 33mn 33s
Bit rate mode                  : Constant
Bit rate                       : 192 Kbps
Channel(s)                     : 2 channels
Channel positions              : Front: L R
Sampling rate                  : 48.0 KHz
Bit depth                      : 16 bits
Compression mode               : Lossy
Stream size                    : 46.1 MiB (2%)
Title                          : AC3 2.0 @ 192 kbps - ДТВ
Language                       : Russian
Default                        : No
Forced                         : No
Audio #5
ID                             : 6
Format                         : AC-3
Format/Info                    : Audio Coding 3
Mode extension                 : CM (complete main)
Format settings, Endianness    : Big
Codec ID                       : A_AC3
Duration                       : 33mn 33s
Bit rate mode                  : Constant
Bit rate                       : 384 Kbps
Channel(s)                     : 6 channels
Channel positions              : Front: L C R, Side: L R, LFE
Sampling rate                  : 48.0 KHz
Bit depth                      : 16 bits
Compression mode               : Lossy
Stream size                    : 92.2 MiB (3%)
Title                          : AC3 5.1 @ 384 kbps - NovaFilm, А. Дасевич
Language                       : Russian
Default                        : No
Forced                         : No
Audio #6
ID                             : 7
Format                         : AC-3
Format/Info                    : Audio Coding 3
Mode extension                 : CM (complete main)
Format settings, Endianness    : Big
Codec ID                       : A_AC3
Duration                       : 33mn 33s
Bit rate mode                  : Constant
Bit rate                       : 192 Kbps
Channel(s)                     : 2 channels
Channel positions              : Front: L R
Sampling rate                  : 48.0 KHz
Bit depth                      : 16 bits
Compression mode               : Lossy
Stream size                    : 46.1 MiB (2%)
Title                          : AC3 2.0 @ 192 kbps - Квадрат Малевича
Language                       : Russian
Default                        : No
Forced                         : No
Audio #7
ID                             : 8
Format                         : AC-3
Format/Info                    : Audio Coding 3
Mode extension                 : CM (complete main)
Format settings, Endianness    : Big
Codec ID                       : A_AC3
Duration                       : 33mn 33s
Bit rate mode                  : Constant
Bit rate                       : 192 Kbps
Channel(s)                     : 2 channels
Channel positions              : Front: L R
Sampling rate                  : 48.0 KHz
Bit depth                      : 16 bits
Compression mode               : Lossy
Stream size                    : 46.1 MiB (2%)
Title                          : AC3 2.0 @ 192 kbps - OTHFilm
Language                       : Russian
Default                        : No
Forced                         : No
Audio #8
ID                             : 9
Format                         : AC-3
Format/Info                    : Audio Coding 3
Mode extension                 : CM (complete main)
Format settings, Endianness    : Big
Codec ID                       : A_AC3
Duration                       : 33mn 33s
Bit rate mode                  : Constant
Bit rate                       : 192 Kbps
Channel(s)                     : 2 channels
Channel positions              : Front: L R
Sampling rate                  : 48.0 KHz
Bit depth                      : 16 bits
Compression mode               : Lossy
Stream size                    : 46.1 MiB (2%)
Title                          : AC3 2.0 @ 192 kbps - 1+1, Дубляж
Language                       : Ukrainian
Default                        : No
Forced                         : No
Audio #9
ID                             : 10
Format                         : AC-3
Format/Info                    : Audio Coding 3
Mode extension                 : CM (complete main)
Format settings, Endianness    : Big
Codec ID                       : A_AC3
Duration                       : 33mn 33s
Bit rate mode                  : Constant
Bit rate                       : 448 Kbps
Channel(s)                     : 6 channels
Channel positions              : Front: L C R, Side: L R, LFE
Sampling rate                  : 48.0 KHz
Bit depth                      : 16 bits
Compression mode               : Lossy
Stream size                    : 108 MiB (4%)
Title                          : AC3 5.1 @ 448 kbps
Language                       : English
Default                        : No
Forced                         : No
Audio #10
ID                             : 11
Format                         : AC-3
Format/Info                    : Audio Coding 3
Mode extension                 : CM (complete main)
Format settings, Endianness    : Big
Codec ID                       : A_AC3
Duration                       : 33mn 33s
Bit rate mode                  : Constant
Bit rate                       : 224 Kbps
Channel(s)                     : 2 channels
Channel positions              : Front: L R
Sampling rate                  : 48.0 KHz
Bit depth                      : 16 bits
Compression mode               : Lossy
Stream size                    : 53.8 MiB (2%)
Title                          : AC3 2.0 @ 224 kbps - Commentary
Language                       : English
Default                        : No
Forced                         : No
Text #1
ID                             : 12
Format                         : UTF-8
Codec ID                       : S_TEXT/UTF8
Codec ID/Info                  : UTF-8 Plain Text
Language                       : English
Default                        : No
Forced                         : No
Text #2
ID                             : 13
Format                         : UTF-8
Codec ID                       : S_TEXT/UTF8
Codec ID/Info                  : UTF-8 Plain Text
Title                          : SDH
Language                       : English
Default                        : No
Forced                         : No
Text #3
ID                             : 14
Format                         : UTF-8
Codec ID                       : S_TEXT/UTF8
Codec ID/Info                  : UTF-8 Plain Text
Title                          : Commentary
Language                       : English
Default                        : No
Forced                         : No
Menu
00:00:00.000                   : en:00:00:00.000
00:05:19.277                   : en:00:05:19.277
00:14:18.441                   : en:00:14:18.441
00:24:56.537                   : en:00:24:56.537
00:31:38.522                   : en:00:31:38.522
Вы не можете начинать темы
Вы не можете отвечать на сообщения
Вы не можете редактировать свои сообщения
Вы не можете удалять свои сообщения
Вы не можете голосовать в опросах
Вы не можете прикреплять файлы к сообщениям
Вы можете скачивать файлы
!ВНИМАНИЕ!

Сайт не предоставляет электронные версии произведений, а занимается лишь коллекционированием и каталогизацией ссылок, присылаемых и публикуемых на форуме нашими читателями. Если вы являетесь правообладателем какого-либо представленного материала и не желаете, чтобы ссылка на него находилась в нашем каталоге, свяжитесь с нами, и мы незамедлительно удалим ее. Файлы для обмена на трекере предоставлены пользователями сайта, и администрация не несет ответственности за их содержание. Просьба не заливать файлы, защищенные авторскими правами, а также файлы нелегального содержания!

Искали программы, игры, дополнения, музыка mp3, аниме, аудио книги, журналы? Добро пожаловать на свободный торрент трекер Torrents, у нас можно скачать бесплатно, без смс и регистрации и прочих ограничений лучшие, отборные сборки программ, игр. Скачать торрентом не составит труда даже не опытному пользователю. Раздачи ежедневно обновляются, только лучшие и качественные раздачи, подробные описания и скриншоты. Огромная коллекция программ для работы со звуком, графикой, дизайном, а так же множество плагинов и инструментов к ним с подробной инструкцией и рекомендациями. Прошивки для навигаторов, карты. Разнообразные игры, для Windows, Linux. В коллекцие есть и старые игры любых жанров, Rpg, Action, Shooter, strategy Множество дополнений, модификаций, сценариев для популярных игр в жанре экш, рпг, гонки, стратегии, логические игры. Множество аддонов и сценариев для Microsoft Flight Simulator Большая коллекция книг, учебников. Если нет возможности купить печатное издание - смело скачивайте цифровую версию книги или, быть может, журнала. Не любите читать - можно загрузить бесплатно аудикнигу. Для веб дизайнеров и программистов так же найдется множество специализированного софта, таких как: редакторы с подсветкой, среды программирования, компоненты, системы управления базами данных, разнообразные скрипты и шаблоны. Не так давно у нас появился материал для автолюбителей и владельцев мото - оригинальные и неоригинальные каталоги запчастей, книги и журналы по ремонту и обслуживанию, видеоуроки, статьи по чип тюнингу, прошивкам. Процедура получения контента элементарная, достаточно просто скачать торрент файл и добавить его в загрузку в вашем торрент клиенте. Если у вас нет специального торрент клиента, вы можете его скачать у нас.

Sitemap