Блудливая Калифорния / Californication / Сезон: 4 / Серии: 1-12 (12) (Том Капинос) [2011, комедия, драма, HDTV 1080i] MVO (NovaFilm) 

Цитировать
Блудливая Калифорния
4 сезон
CalifornicationГод выпуска: 2011
Страна:
Жанр: комедия, драма
Продолжительность: ~30 мин/серия
Перевод: профессиональный многоголосый закадровый (NovaFilm)
Русские субтитры: нет
Режиссёр: Том Капинос
В ролях: Дэвид Духовны, Наташа МакЭлхоун, Мэделин Мартин, Эван Хандлер и другие
Описание: В новом сезоне Хэнку предстоят новые сложности. Проблемы с законом и не только будут преследовать его с первой серии.
Релиз: и Zenk
Ссылка на предыдущие и альтернативные раздачи
Качество: HDTV 1080i [Сэмпл]
Формат: TS
Видео кодек: MPEG2
Аудио кодек: AC3
Видео: 1 920x1 080, 29.970 fps, MPEG2, 12.1 Mbps, Bits/(Pixel*Frame) : 0.195
Аудио 1 (NovaFilm): AC3, 48.0 KHz, 384 Kbps, 6 ch
Аудио 2 (Оригинал): AC3, 48.0 KHz, 384 Kbps, 6 ch-- --
4 сезон в:
    Jimmy J. - HDTVRip | HDTV 720p                 
NovaFilm - HDTVRip | HDTV 720p | 1080i
   LostFilm - HDTVRip | HDTV 720p                

MI

General
ID : 1 (0x1)
Complete name : C:\Видео\Сериалы\Блудливая Калифорния\4 сезон HDTV 1080i NovaFilm\Californication.S04E01.1080i.Rus.Eng.HDCLUB.ts
Format : MPEG-TS
File size : 2.77 GiB
Duration : 29mn 11s
Overall bit rate : 13.6 Mbps
Maximum Overall bit rate : 35.5 Mbps
Video
ID : 4113 (0x1011)
Menu ID : 1 (0x1)
Format : MPEG Video
Format version : Version 2
Format profile : Main@High
Format settings, BVOP : Yes
Format settings, Matrix : Default
Codec ID : 2
Duration : 29mn 11s
Bit rate mode : Variable
Bit rate : 12.1 Mbps
Nominal bit rate : 14.7 Mbps
Width : 1 920 pixels
Height : 1 080 pixels
Display aspect ratio : 16:9
Frame rate : 29.970 fps
Color space : YUV
Chroma subsampling : 4:2:0
Bit depth : 8 bits
Compression mode : Lossy
Bits/(Pixel*Frame) : 0.195
Stream size : 2.48 GiB (89%)
Audio #1
ID : 4352 (0x1100)
Menu ID : 1 (0x1)
Format : AC-3
Format/Info : Audio Coding 3
Mode extension : CM (complete main)
Codec ID : 129
Duration : 29mn 11s
Bit rate mode : Constant
Bit rate : 384 Kbps
Channel(s) : 6 channels
Channel positions : Front: L C R, Side: L R, LFE
Sampling rate : 48.0 KHz
Bit depth : 16 bits
Compression mode : Lossy
Stream size : 80.2 MiB (3%)
Language : Russian
Audio #2
ID : 4353 (0x1101)
Menu ID : 1 (0x1)
Format : AC-3
Format/Info : Audio Coding 3
Mode extension : CM (complete main)
Codec ID : 129
Duration : 29mn 6s
Bit rate mode : Constant
Bit rate : 384 Kbps
Channel(s) : 6 channels
Channel positions : Front: L C R, Side: L R, LFE
Sampling rate : 48.0 KHz
Bit depth : 16 bits
Compression mode : Lossy
Stream size : 79.9 MiB (3%)
Language : English
Text
ID : 4113 (0x1011)608-2
Menu ID : 1 (0x1)
Format : EIA-608
Muxing mode : A/53 / DTVCC Transport
Muxing mode, more info : Muxed in Video #1
Duration : 29mn 11s
Stream size : 0.00 Byte (0%)

Скриншоты

Вы не можете начинать темы
Вы не можете отвечать на сообщения
Вы не можете редактировать свои сообщения
Вы не можете удалять свои сообщения
Вы не можете голосовать в опросах
Вы не можете прикреплять файлы к сообщениям
Вы можете скачивать файлы
!ВНИМАНИЕ!

Сайт не предоставляет электронные версии произведений, а занимается лишь коллекционированием и каталогизацией ссылок, присылаемых и публикуемых на форуме нашими читателями. Если вы являетесь правообладателем какого-либо представленного материала и не желаете, чтобы ссылка на него находилась в нашем каталоге, свяжитесь с нами, и мы незамедлительно удалим ее. Файлы для обмена на трекере предоставлены пользователями сайта, и администрация не несет ответственности за их содержание. Просьба не заливать файлы, защищенные авторскими правами, а также файлы нелегального содержания!

Искали программы, игры, дополнения, музыка mp3, аниме, аудио книги, журналы? Добро пожаловать на свободный торрент трекер Torrents, у нас можно скачать бесплатно, без смс и регистрации и прочих ограничений лучшие, отборные сборки программ, игр. Скачать торрентом не составит труда даже не опытному пользователю. Раздачи ежедневно обновляются, только лучшие и качественные раздачи, подробные описания и скриншоты. Огромная коллекция программ для работы со звуком, графикой, дизайном, а так же множество плагинов и инструментов к ним с подробной инструкцией и рекомендациями. Прошивки для навигаторов, карты. Разнообразные игры, для Windows, Linux. В коллекцие есть и старые игры любых жанров, Rpg, Action, Shooter, strategy Множество дополнений, модификаций, сценариев для популярных игр в жанре экш, рпг, гонки, стратегии, логические игры. Множество аддонов и сценариев для Microsoft Flight Simulator Большая коллекция книг, учебников. Если нет возможности купить печатное издание - смело скачивайте цифровую версию книги или, быть может, журнала. Не любите читать - можно загрузить бесплатно аудикнигу. Для веб дизайнеров и программистов так же найдется множество специализированного софта, таких как: редакторы с подсветкой, среды программирования, компоненты, системы управления базами данных, разнообразные скрипты и шаблоны. Не так давно у нас появился материал для автолюбителей и владельцев мото - оригинальные и неоригинальные каталоги запчастей, книги и журналы по ремонту и обслуживанию, видеоуроки, статьи по чип тюнингу, прошивкам. Процедура получения контента элементарная, достаточно просто скачать торрент файл и добавить его в загрузку в вашем торрент клиенте. Если у вас нет специального торрент клиента, вы можете его скачать у нас.

Sitemap