Блудливая Калифорния / Калифорникейшн / Californication / Сезон: 5 / Серии: 1-12 из 12 (Том Капинос) [2012, США, Комедия, драма, WEB-DL 1080p] MVO (LostFilm) + MVO (1TV) + MVO (Novafilm) + Original + Subs (Rus, Eng) 

Цитировать
Блудливая Калифорния / Калифорникейшн / Californication / Сезон 5
-Год выпуска: 2012
Страна: США
Жанр: Комедия, драма
Продолжительность: 00:29:00-Перевод#1: Профессиональный (многоголосый закадровый) LostFilm
Перевод#2: Профессиональный (многоголосый закадровый) 1TV
Перевод#3: Профессиональный (многоголосый закадровый) NovaFilm
Русские субтитры: есть [notabenoid]-Режиссёр: Том Капинос-В ролях: Дэвид Духовны, Наташа МакЭлхоун, Мэделин Мартин, Эван Хандлер, Памела Адлон, Мадлен Зима-Описание: Похождения блудливого писателя Хэнка Муди продолжаются. На этот раз, спустя два года, он возвращается на солнечное побережье, чтобы сработаться вместе с экс рэпером RZA. И пусть за эти годы многое изменилось, но только не старина Хэнк...-Ссылка на предыдущие и альтернативные раздачи-Сэмпл: http://multi-up.com/836702-Качество: WEB-DL 1080p
Формат: MKV
Видео кодек: H.264
Аудио кодек: AC3
Видео: AVC ~ 5000 Кбит/сек; 1920 x 1080 (1.778:1), 23.976 fps, 0.100 bit/pixel
Аудио#1: AC3, 384 Кбит/сек, 6 каналов, 48,0 КГц (LostFilm)
Аудио#2: AC3, 192 Кбит/сек, 2 каналов, 48,0 КГц (1TV)
Аудио#3: AC3, 384 Кбит/сек, 6 каналов, 48,0 КГц (Novafilm)
Аудио#4: AC3, 384 Кбит/сек, 6 каналов, 48,0 КГц (English)
Субтитры: Русские, Английские-

MediaInfo:

Общее
Уникальный идентификатор                 : 227254316230469288484128810151609492349 (0xAAF796D9DF070B928CF33CBCD435E37D)
Полное имя                               : Californication.S05.1080p.WEB-DL.MVO.LostFilm.1TV.NovaFilm.Sub.Rus.Eng\Californication.S05E01.1080p.WEB-DL.MVO.LostFilm.1TV.NovaFilm.Sub.Rus.Eng.mkv
Формат                                   : Matroska
Версия формата                           : Version 4 / Version 2
Размер файла                             : 1,33 Гбайт
Продолжительность                        : 29 м.
Общий поток                              : 6580 Кбит/сек
Название фильма                          : Californication S05E01 JFK to LAX [Rus - LostFilm | MVO 1TV | NovaFilm] [Sub | Eng | Rus]
Дата кодирования                         : UTC 2013-02-26 04:48:57
Программа кодирования                    : mkvmerge v6.0.0 ('Coming Up For Air') built on Jan 20 2013 09:52:00
Библиотека кодирования                   : libebml v1.3.0 + libmatroska v1.4.0
Видео
Идентификатор                            : 1
Формат                                   : AVC
Формат/Информация                        : Advanced Video Codec
Профиль формата                          : High@L4.0
Параметр CABAC формата                   : Да
Параметр ReFrames формата                : 4 кадра
Параметр GOP формата                     : N=1
Идентификатор кодека                     : V_MPEG4/ISO/AVC
Продолжительность                        : 29 м.
Битрейт                                  : 5105 Кбит/сек
Ширина                                   : 1920 пикселей
Высота                                   : 1080 пикселей
Соотношение сторон                       : 16:9
Режим частоты кадров                     : Постоянный
Частота кадров                           : 23,976 кадра/сек
Цветовое пространство                    : YUV
Субдискретизация насыщенности            : 4:2:0
Битовая глубина                          : 8 бит
Тип развёртки                            : Прогрессивная
Бит/(Пиксели*Кадры)                      : 0.103
Размер потока                            : 1,04 Гбайт (78%)
Заголовок                                : JFK to LAX
Язык                                     : English
Default                                  : Да
Forced                                   : Нет
Основные цвета                           : BT.709
Характеристики трансфера                 : BT.709
Коэффициенты матрицы                     : BT.709
Аудио #1
Идентификатор                            : 2
Формат                                   : AC-3
Формат/Информация                        : Audio Coding 3
Расширение режима                        : CM (complete main)
Параметр Endianness формата              : Big
Идентификатор кодека                     : A_AC3
Продолжительность                        : 29 м.
Вид битрейта                             : Постоянный
Битрейт                                  : 384 Кбит/сек
Каналы                                   : 6 каналов
Расположение каналов                     : Front: L C R, Side: L R, LFE
Частота                                  : 48,0 КГц
Битовая глубина                          : 16 бит
Метод сжатия                             : С потерями
Размер потока                            : 79,7 Мбайт (6%)
Заголовок                                : LostFilm @ AC3 5.1
Язык                                     : Russian
Default                                  : Да
Forced                                   : Да
Аудио #2
Идентификатор                            : 3
Формат                                   : AC-3
Формат/Информация                        : Audio Coding 3
Расширение режима                        : CM (complete main)
Параметр Endianness формата              : Big
Идентификатор кодека                     : A_AC3
Продолжительность                        : 29 м.
Вид битрейта                             : Постоянный
Битрейт                                  : 192 Кбит/сек
Каналы                                   : 2 канала
Расположение каналов                     : Front: L R
Частота                                  : 48,0 КГц
Битовая глубина                          : 16 бит
Метод сжатия                             : С потерями
Размер потока                            : 39,9 Мбайт (3%)
Заголовок                                : 1TV @ AC3 2.0
Язык                                     : Russian
Default                                  : Нет
Forced                                   : Нет
Аудио #3
Идентификатор                            : 4
Формат                                   : AC-3
Формат/Информация                        : Audio Coding 3
Расширение режима                        : CM (complete main)
Параметр Endianness формата              : Big
Идентификатор кодека                     : A_AC3
Продолжительность                        : 29 м.
Вид битрейта                             : Постоянный
Битрейт                                  : 384 Кбит/сек
Каналы                                   : 6 каналов
Расположение каналов                     : Front: L C R, Side: L R, LFE
Частота                                  : 48,0 КГц
Битовая глубина                          : 16 бит
Метод сжатия                             : С потерями
Размер потока                            : 79,7 Мбайт (6%)
Заголовок                                : NovaFilm @ AC3 5.1
Язык                                     : Russian
Default                                  : Нет
Forced                                   : Нет
Аудио #4
Идентификатор                            : 5
Формат                                   : AC-3
Формат/Информация                        : Audio Coding 3
Расширение режима                        : CM (complete main)
Параметр Endianness формата              : Big
Идентификатор кодека                     : A_AC3
Продолжительность                        : 29 м.
Вид битрейта                             : Постоянный
Битрейт                                  : 384 Кбит/сек
Каналы                                   : 6 каналов
Расположение каналов                     : Front: L C R, Side: L R, LFE
Частота                                  : 48,0 КГц
Битовая глубина                          : 16 бит
Метод сжатия                             : С потерями
Размер потока                            : 79,7 Мбайт (6%)
Язык                                     : English
Default                                  : Нет
Forced                                   : Нет
Текст #1
Идентификатор                            : 6
Формат                                   : UTF-8
Идентификатор кодека                     : S_TEXT/UTF8
Идентификатор кодека/Информация          : UTF-8 Plain Text
Заголовок                                : Notabenoid
Язык                                     : Russian
Default                                  : Нет
Forced                                   : Нет
Текст #2
Идентификатор                            : 7
Формат                                   : UTF-8
Идентификатор кодека                     : S_TEXT/UTF8
Идентификатор кодека/Информация          : UTF-8 Plain Text
Язык                                     : English
Default                                  : Нет
Forced                                   : Нет

Скриншоты:

Вы не можете начинать темы
Вы не можете отвечать на сообщения
Вы не можете редактировать свои сообщения
Вы не можете удалять свои сообщения
Вы не можете голосовать в опросах
Вы не можете прикреплять файлы к сообщениям
Вы можете скачивать файлы
!ВНИМАНИЕ!

Сайт не предоставляет электронные версии произведений, а занимается лишь коллекционированием и каталогизацией ссылок, присылаемых и публикуемых на форуме нашими читателями. Если вы являетесь правообладателем какого-либо представленного материала и не желаете, чтобы ссылка на него находилась в нашем каталоге, свяжитесь с нами, и мы незамедлительно удалим ее. Файлы для обмена на трекере предоставлены пользователями сайта, и администрация не несет ответственности за их содержание. Просьба не заливать файлы, защищенные авторскими правами, а также файлы нелегального содержания!

Искали программы, игры, дополнения, музыка mp3, аниме, аудио книги, журналы? Добро пожаловать на свободный торрент трекер Torrents, у нас можно скачать бесплатно, без смс и регистрации и прочих ограничений лучшие, отборные сборки программ, игр. Скачать торрентом не составит труда даже не опытному пользователю. Раздачи ежедневно обновляются, только лучшие и качественные раздачи, подробные описания и скриншоты. Огромная коллекция программ для работы со звуком, графикой, дизайном, а так же множество плагинов и инструментов к ним с подробной инструкцией и рекомендациями. Прошивки для навигаторов, карты. Разнообразные игры, для Windows, Linux. В коллекцие есть и старые игры любых жанров, Rpg, Action, Shooter, strategy Множество дополнений, модификаций, сценариев для популярных игр в жанре экш, рпг, гонки, стратегии, логические игры. Множество аддонов и сценариев для Microsoft Flight Simulator Большая коллекция книг, учебников. Если нет возможности купить печатное издание - смело скачивайте цифровую версию книги или, быть может, журнала. Не любите читать - можно загрузить бесплатно аудикнигу. Для веб дизайнеров и программистов так же найдется множество специализированного софта, таких как: редакторы с подсветкой, среды программирования, компоненты, системы управления базами данных, разнообразные скрипты и шаблоны. Не так давно у нас появился материал для автолюбителей и владельцев мото - оригинальные и неоригинальные каталоги запчастей, книги и журналы по ремонту и обслуживанию, видеоуроки, статьи по чип тюнингу, прошивкам. Процедура получения контента элементарная, достаточно просто скачать торрент файл и добавить его в загрузку в вашем торрент клиенте. Если у вас нет специального торрент клиента, вы можете его скачать у нас.

Sitemap