Викинги / Vikings / Сезон 3 / Серии 1-10 (10) + Дневник Ательстана / Athelstan\'s Journal (Кен Джиротти) [2015, Ирландия, Канада, боевик, драма, военный, история, WEB-DL/WEBRip 720p] MVO (AlexFilm) 

Цитировать
-Викинги / Vikings
3 сезон + Дневник Ательстана / Athelstan's Journal
-- Год выпуска: 2015
Страна: Ирландия, Канада
Жанр: боевик, драма, военный, история
Продолжительность: 11 х ~44 мин-Перевод: профессиональный многоголосый закадровый (AlexFilm)-Режиссеры: Кен Джиротти, Джефф Вулнаф, Киаран Доннелли
В ролях: Трэвис Фиммел, Клайв Стэнден, Кэтрин Уинник, Джессалин Гилсиг, Джордж Благден, Густаф Скарсгард, Александр Людвиг, Алисса Сазерленд, Лайнас Роуч, Бен Робсон, Кевин Дюран, Лотер Блюто, Моргана Полански, Мод Хирст...-Описание: Сериал рассказывает об отряде викингов Рагнара. Он восстал, чтобы стать королём племён викингов. Норвежская легенда гласит, что он был прямым потомком Одина, бога войны и воинов.-Релиз:
Перевод: Константин Кривоногов
Монтаж и сведение звука: Сергей Мартынов
Роли озвучивали:
  • Евгения Тихонова
  • Александр Воронов
  • Михаил Суслов
  • Александр Долгов
  • Александр Дасевич
- -Качество: WEB-DL 720p
Контейнер: MKV
Видео: AVC, 1280x718 (16:9), 23.976 fps, 4000 kbps
Аудио Rus: AC-3, 48.0 KHz, 6 ch, 384 kbps
Аудио Eng: AC-3, 48.0 KHz, 6 ch, 384 kbps
Викинги: Дневник Ательстана
Качество: WEBRip 720p
Контейнер: MKV
Видео: AVC, 1280x720 (16:9), 23.976 fps, 2430 kbps
Аудио Rus: AC-3, 48.0 KHz, 2 ch, 192 kbps
Аудио Eng: AC-3, 48.0 KHz, 2 ch, 192 kbps
Субтитры: отсутствуют-

Скриншоты

MediaInfo

Format : Matroska
Format version : Version 4 / Version 2
File size : 1.51 GiB
Duration : 45mn 10s
Overall bit rate : 4 797 Kbps
Movie name : Vikings 3x01 Mercenary @ AlexFilm
Encoded date : UTC 2015-02-20 17:06:52
Writing application : mkvmerge v6.6.0 ('The Edge Of The In Between') built on Dec 1 2013 17:55:00
Writing library : libebml v1.3.0 + libmatroska v1.4.1
Video
ID : 1
Format : AVC
Format/Info : Advanced Video Codec
Format profile : High@L3.1
Format settings, CABAC : No
Format settings, ReFrames : 2 frames
Codec ID : V_MPEG4/ISO/AVC
Duration : 45mn 10s
Bit rate : 3 933 Kbps
Width : 1 280 pixels
Height : 718 pixels
Display aspect ratio : 16:9
Frame rate mode : Constant
Frame rate : 23.976 fps
Color space : YUV
Chroma subsampling : 4:2:0
Bit depth : 8 bits
Scan type : Progressive
Bits/(Pixel*Frame) : 0.179
Stream size : 1.24 GiB (82%)
Language : English
Default : Yes
Forced : No
Color primaries : BT.709
Transfer characteristics : BT.709
Matrix coefficients : BT.709
Color range : Limited
Audio #1
ID : 2
Format : AC-3
Format/Info : Audio Coding 3
Mode extension : CM (complete main)
Format settings, Endianness : Big
Codec ID : A_AC3
Duration : 45mn 10s
Bit rate mode : Constant
Bit rate : 384 Kbps
Channel(s) : 6 channels
Channel positions : Front: L C R, Side: L R, LFE
Sampling rate : 48.0 KHz
Bit depth : 16 bits
Compression mode : Lossy
Stream size : 124 MiB (8%)
Title : DD5.1 AlexFilm
Language : Russian
Default : Yes
Forced : No
Audio #2
ID : 3
Format : AC-3
Format/Info : Audio Coding 3
Mode extension : CM (complete main)
Format settings, Endianness : Big
Codec ID : A_AC3
Duration : 45mn 10s
Bit rate mode : Constant
Bit rate : 384 Kbps
Channel(s) : 6 channels
Channel positions : Front: L C R, Side: L R, LFE
Sampling rate : 48.0 KHz
Bit depth : 16 bits
Compression mode : Lossy
Stream size : 124 MiB (8%)
Title : DD5.1 Original
Language : English
Default : No
Forced : No

Внимание! Раздача ведётся путём добавления новых серий

Внимание! Раздача ведётся путём добавления новых серий; при каждом добавлении создётся новый торрент. Чтобы начать докачку новой серии, пользователям необходимо сделать следующее:
(1) остановить скачивание,
(2) удалить старый торрент у себя из клиента (старые серии удалять не надо),
(3) скачать новый торрент и запустить его у себя в клиенте вместо старого, при этом указать клиенту путь в старую папку куда и должно происходить скачивание новых серий.
Ваш клиент при этом должен произвести хеширование (проверку) старой папки (если не производит сам - помогите ему сделать это), и будет докачивать только те серии которых у вас ещё нет. Старые серии при этом не удаляются, а продолжают раздаваться!
Eсли вы уже удалили старые серии, то предотвратить повторную закачку старых серий можно, отжав галочку в соответсвующих местах при запуске нового торрента. По возможности, желательно не удалять старые серии как можно дольше чтобы релизёр не столько продолжал раздавать старые серии, а смог сконцентрироваться на новых.
-Все раздачи сериала-
Вы не можете начинать темы
Вы не можете отвечать на сообщения
Вы не можете редактировать свои сообщения
Вы не можете удалять свои сообщения
Вы не можете голосовать в опросах
Вы не можете прикреплять файлы к сообщениям
Вы можете скачивать файлы
!ВНИМАНИЕ!

Сайт не предоставляет электронные версии произведений, а занимается лишь коллекционированием и каталогизацией ссылок, присылаемых и публикуемых на форуме нашими читателями. Если вы являетесь правообладателем какого-либо представленного материала и не желаете, чтобы ссылка на него находилась в нашем каталоге, свяжитесь с нами, и мы незамедлительно удалим ее. Файлы для обмена на трекере предоставлены пользователями сайта, и администрация не несет ответственности за их содержание. Просьба не заливать файлы, защищенные авторскими правами, а также файлы нелегального содержания!

Искали программы, игры, дополнения, музыка mp3, аниме, аудио книги, журналы? Добро пожаловать на свободный торрент трекер Torrents, у нас можно скачать бесплатно, без смс и регистрации и прочих ограничений лучшие, отборные сборки программ, игр. Скачать торрентом не составит труда даже не опытному пользователю. Раздачи ежедневно обновляются, только лучшие и качественные раздачи, подробные описания и скриншоты. Огромная коллекция программ для работы со звуком, графикой, дизайном, а так же множество плагинов и инструментов к ним с подробной инструкцией и рекомендациями. Прошивки для навигаторов, карты. Разнообразные игры, для Windows, Linux. В коллекцие есть и старые игры любых жанров, Rpg, Action, Shooter, strategy Множество дополнений, модификаций, сценариев для популярных игр в жанре экш, рпг, гонки, стратегии, логические игры. Множество аддонов и сценариев для Microsoft Flight Simulator Большая коллекция книг, учебников. Если нет возможности купить печатное издание - смело скачивайте цифровую версию книги или, быть может, журнала. Не любите читать - можно загрузить бесплатно аудикнигу. Для веб дизайнеров и программистов так же найдется множество специализированного софта, таких как: редакторы с подсветкой, среды программирования, компоненты, системы управления базами данных, разнообразные скрипты и шаблоны. Не так давно у нас появился материал для автолюбителей и владельцев мото - оригинальные и неоригинальные каталоги запчастей, книги и журналы по ремонту и обслуживанию, видеоуроки, статьи по чип тюнингу, прошивкам. Процедура получения контента элементарная, достаточно просто скачать торрент файл и добавить его в загрузку в вашем торрент клиенте. Если у вас нет специального торрент клиента, вы можете его скачать у нас.

Sitemap