Викинги / Vikings / Сезон: 1 / Серии: 1-9 из 9 (Киаран Доннелли, Йохан Ренк, Кен Джиротти) [2013, Ирландия, Канада, Боевик, драма, военный, история, WEB-DL 720p] MVO (Первый канал) + Original + Subs (Rus) 

Цитировать
Викинги / Vikings-«The Storm Is Coming»-- Год выпуска: 2013
Страна: Ирландия, Канада
Жанр: Боевик, драма, военный, история
Продолжительность: ~00:44:00-Перевод: Профессиональный (многоголосый закадровый) | (Первый канал)
Субтитры: Русские (форсированные)-Режиссёр: Киаран Доннелли, Йохан Ренк, Кен Джиротти-В ролях: Трэвис Фиммел, Клайв Стэнден, Кэтрин Уинник, Гэбриел Бирн, Джессалин Гилсиг, Густаф Скарсгард, Джефферсон Холл, Джордж Благден, Тадж Мерфи, Диармэйд Мурта-Описание: Сериал рассказывает об отряде викингов Рагнара. Он восстал, чтобы стать королём племён викингов. Норвежская легенда гласит, что он был прямым потомком Одина, бога войны и воинов.-Ссылка на предыдущие и альтернативные раздачи- -Озвучка: Первый канал
Подготовка видео: vadimdexter
Работа со звуком: zhbanochek, vadimdexter-Качество: WEB-DL 720p
Формат: MKV
Видео кодек: H.264
Аудио кодек: AC3
Видео: AVC, 1280×720 (1.78:1), 23.976 fps, 4160 kbps avg, 0.188 bit/pixel
Аудио: 48 kHz, AC3 Dolby Digital, 2 ch, ~192 kbps | (Первый канал)
Аудио: 48 kHz, AC3 Dolby Digital, 3/2 (L,C,R,l,r) + LFE ch, ~384 kbps-

MediaInfo

General
Unique ID : 219576156749371900511644288807634314916 (0xA530D45C73C11219BB3DA801ADE9A6A4)
Complete name : D:\Filmi\Vikings (Ñåçîí 1) WEB-DL 720p\vikings.s01e01.web-dl.720.rus.eng.mkv
Format : Matroska
Format version : Version 4 / Version 2
File size : 1.49 GiB
Duration : 44mn 11s
Overall bit rate : 4 832 Kbps
Encoded date : UTC 2013-07-02 21:51:53
Writing application : mkvmerge v6.3.0 ('You can't stop me!') built on Jun 27 2013 22:06:07
Writing library : libebml v1.3.0 + libmatroska v1.4.0
Video #1
ID : 1
Format : AVC
Format/Info : Advanced Video Codec
Format profile : High@L3.1
Format settings, CABAC : No
Format settings, ReFrames : 2 frames
Codec ID : V_MPEG4/ISO/AVC
Duration : 44mn 11s
Bit rate : 4 160 Kbps
Width : 1 280 pixels
Height : 720 pixels
Display aspect ratio : 16:9
Frame rate mode : Constant
Frame rate : 23.976 fps
Color space : YUV
Chroma subsampling : 4:2:0
Bit depth : 8 bits
Scan type : Progressive
Bits/(Pixel*Frame) : 0.188
Stream size : 1.28 GiB (86%)
Language : English
Default : No
Forced : No
Color primaries : BT.709
Transfer characteristics : BT.709
Matrix coefficients : BT.709
Audio #2
ID : 2
Format : AC-3
Format/Info : Audio Coding 3
Mode extension : CM (complete main)
Format settings, Endianness : Big
Codec ID : A_AC3
Duration : 44mn 11s
Bit rate mode : Constant
Bit rate : 192 Kbps
Channel(s) : 2 channels
Channel positions : Front: L R
Sampling rate : 48.0 KHz
Bit depth : 16 bits
Compression mode : Lossy
Stream size : 60.7 MiB (4%)
Language : Russian
Default : Yes
Forced : No
Audio #3
ID : 3
Format : AC-3
Format/Info : Audio Coding 3
Mode extension : CM (complete main)
Format settings, Endianness : Big
Codec ID : A_AC3
Duration : 44mn 11s
Bit rate mode : Constant
Bit rate : 384 Kbps
Channel(s) : 6 channels
Channel positions : Front: L C R, Side: L R, LFE
Sampling rate : 48.0 KHz
Bit depth : 16 bits
Compression mode : Lossy
Stream size : 121 MiB (8%)
Language : English
Default : No
Forced : No
Text #4
ID : 4
Format : UTF-8
Codec ID : S_TEXT/UTF8
Codec ID/Info : UTF-8 Plain Text
Language : Russian
Default : Yes
Forced : Yes
-

Скриншоты

-

Внимание! Раздача ведётся путём добавления новых серий!

Внимание! Раздача ведётся путём добавления новых серий; при каждом добавлении создётся новый торрент. Чтобы начать докачку новой серии, пользователям необходимо сделать следующее: (1) остановить скачивание, (2) удалить старый торрент у себя из клиента (старые серии удалять не надо), (3) скачать новый торрент и запустить его у себя в клиенте вместо старого, при этом указать клиенту путь в старую папку куда и должно происходить скачивание новых серий.
Ваш клиент при этом должен произвести хеширование (проверку) старой папки (если не производит сам - помогите ему сделать это), и будет докачивать только те серии которых у вас ещё нет. Старые серии при этом не удаляются, а продолжают раздаваться!
Eсли вы уже удалили старые серии, то предотвратить повторную закачку старых серий можно, отжав галочку в соответсвующих местах при запуске нового торрента.Как закачать отдельный файл из торрента или докачать ранее пропущенные файлы торрента!
-

Список серий

01 - Обряды / Rites of Passage
02 - Гнев северян / Wrath of Northmen
03 - Обездоленные / Dispossessed
04 - Испытание / Trail
05 - Набег / Raid
06 - Погребение мертвых / Burial of the Dead
07 - Королевский выкуп / A King's Ransom
08 - Жертвоприношение / Sacrifice
09 - Все изменится / All Change
-Добавлена 8-9 серия 28.07.2013-
Вы не можете начинать темы
Вы не можете отвечать на сообщения
Вы не можете редактировать свои сообщения
Вы не можете удалять свои сообщения
Вы не можете голосовать в опросах
Вы не можете прикреплять файлы к сообщениям
Вы можете скачивать файлы
!ВНИМАНИЕ!

Сайт не предоставляет электронные версии произведений, а занимается лишь коллекционированием и каталогизацией ссылок, присылаемых и публикуемых на форуме нашими читателями. Если вы являетесь правообладателем какого-либо представленного материала и не желаете, чтобы ссылка на него находилась в нашем каталоге, свяжитесь с нами, и мы незамедлительно удалим ее. Файлы для обмена на трекере предоставлены пользователями сайта, и администрация не несет ответственности за их содержание. Просьба не заливать файлы, защищенные авторскими правами, а также файлы нелегального содержания!

Искали программы, игры, дополнения, музыка mp3, аниме, аудио книги, журналы? Добро пожаловать на свободный торрент трекер Torrents, у нас можно скачать бесплатно, без смс и регистрации и прочих ограничений лучшие, отборные сборки программ, игр. Скачать торрентом не составит труда даже не опытному пользователю. Раздачи ежедневно обновляются, только лучшие и качественные раздачи, подробные описания и скриншоты. Огромная коллекция программ для работы со звуком, графикой, дизайном, а так же множество плагинов и инструментов к ним с подробной инструкцией и рекомендациями. Прошивки для навигаторов, карты. Разнообразные игры, для Windows, Linux. В коллекцие есть и старые игры любых жанров, Rpg, Action, Shooter, strategy Множество дополнений, модификаций, сценариев для популярных игр в жанре экш, рпг, гонки, стратегии, логические игры. Множество аддонов и сценариев для Microsoft Flight Simulator Большая коллекция книг, учебников. Если нет возможности купить печатное издание - смело скачивайте цифровую версию книги или, быть может, журнала. Не любите читать - можно загрузить бесплатно аудикнигу. Для веб дизайнеров и программистов так же найдется множество специализированного софта, таких как: редакторы с подсветкой, среды программирования, компоненты, системы управления базами данных, разнообразные скрипты и шаблоны. Не так давно у нас появился материал для автолюбителей и владельцев мото - оригинальные и неоригинальные каталоги запчастей, книги и журналы по ремонту и обслуживанию, видеоуроки, статьи по чип тюнингу, прошивкам. Процедура получения контента элементарная, достаточно просто скачать торрент файл и добавить его в загрузку в вашем торрент клиенте. Если у вас нет специального торрент клиента, вы можете его скачать у нас.

Sitemap