Викинги / Vikings / Сезон: 2 / Серии: 1-10 из 10 (Кен Джиротти, Киаран Доннелли) [2014, Ирландия, Канада, Боевик, драма, военный, история, BDRip 1080p, Расширенная версия / Extended Version] 3xMVO (AlexFilm, LostFilm, NewStudio) + Original + Eng Sub 

Цитировать
Викинги / Vikings
Год выпуска: 2014
Страна: Ирландия, Канада
Жанр: Комедия, драма
Продолжительность: ~ 00:45:00
Перевод 1: Профессиональный многоголосый закадровый (AlexFilm)
Перевод 2: Профессиональный многоголосый закадровый (LostFilm)
Перевод 3: Профессиональный многоголосый закадровый (NewStudio)
Режиссёр: Кен Джиротти, Киаран Доннелли
В ролях: Трэвис Фиммел, Клайв Стэнден, Джессалин Гилсиг, Густаф Скарсгард, Кэтрин Уинник, Джордж Благден, Джефферсон Холл, Донал Лог, Мод Хирст, Алисса Сазерленд и другие
Описание:
Сериал рассказывает об отряде викингов Рагнара. Он восстал, чтобы стать королём племён викингов. Норвежская легенда гласит, что он был прямым потомком Одина, бога войны и воинов.
Доп. информация: Присутствуют чаптеры.
Ссылка на предыдущие и альтернативные раздачи / Сэмпл
Качество: BDRip 1080p
Контейнер: MKV
Видео: AVC, 1920x1080 (16:9), 23.976 fps, ~ 14600-19600 kbps, 0.293-0.395 bit/pixel
Аудио 1: Русский, AC3, 48.0 KHz, 6 channels, 640 Kbps (AlexFilm)
Аудио 2: Русский, AC3, 48.0 KHz, 6 channels, 640 Kbps (LostFilm)
Аудио 3: Русский, AC3, 48.0 KHz, 6 channels, 640 Kbps (NewStudio)
Аудио 4: Русский, AC3, 48.0 KHz, 6 channels, 640 Kbps (Original)
Субтитры: Русский (форсированные), Английские (Softsub SRT)
Подробнее о релизе:

Озвучка: AlexFilm, LostFilm, NewStudio
Работа со всем звуком: k-marat-s
Рипы: EbP
kmarats на HDCLUB писал(а):• Расширенная версия. На неозвученные места форсированные субтитры.
• Огромная благодарность И.Волкову, Gater_Media, ну и AlexMild за сборку.

MediaInfo

General
Unique ID : 297214500672533993218031865336498391343 (0xDF996E40B9BCECA1EEB772EE196A892F)
Complete name : /Vikings.S02.1080p.BluRay.3xRus.Eng.HDCLUB/Vikings.S02E01.1080p.BluRay.3xRus.Eng.HDCLUB.mkv
Format : Matroska
Format version : Version 4 / Version 2
File size : 6.07 GiB
Duration : 48mn 12s
Overall bit rate : 18.0 Mbps
Movie name : Vikings 2x01 (2014) - Release for HDCLUB
Encoded date : UTC 2015-08-15 18:01:57
Writing application : mkvmerge v8.1.0 ('Psychedelic Postcard') 64bit
Writing library : libebml v1.3.1 + libmatroska v1.4.2
Video
ID : 1
Format : AVC
Format/Info : Advanced Video Codec
Format profile : High@L4.1
Format settings, CABAC : Yes
Format settings, ReFrames : 4 frames
Codec ID : V_MPEG4/ISO/AVC
Duration : 48mn 12s
Bit rate : 15.1 Mbps
Width : 1 920 pixels
Height : 1 080 pixels
Display aspect ratio : 16:9
Frame rate mode : Constant
Frame rate : 23.976 fps
Color space : YUV
Chroma subsampling : 4:2:0
Bit depth : 8 bits
Scan type : Progressive
Bits/(Pixel*Frame) : 0.304
Stream size : 5.09 GiB (84%)
Title : Vikings 2x01 (2014) - Release for HDCLUB
Writing library : x264 core 142 r2431+42 c69a006 tMod [8-bit@all X86_64]
Encoding settings : cabac=1 / ref=4 / deblock=1:-3:-3 / analyse=0x3:0x113 / me=tesa / subme=10 / psy=1 / fade_compensate=0.00 / psy_rd=1.10:0.00 / mixed_ref=1 / me_range=24 / chroma_me=1 / trellis=2 / 8x8dct=1 / cqm=0 / deadzone=21,11 / fast_pskip=0 / chroma_qp_offset=-2 / threads=12 / lookahead_threads=3 / sliced_threads=0 / nr=0 / decimate=0 / interlaced=0 / bluray_compat=0 / constrained_intra=0 / fgo=0 / bframes=12 / b_pyramid=2 / b_adapt=2 / b_bias=0 / direct=3 / weightb=1 / open_gop=0 / weightp=2 / keyint=250 / keyint_min=23 / scenecut=40 / intra_refresh=0 / rc_lookahead=40 / rc=crf / mbtree=0 / crf=19.0000 / qcomp=0.60 / qpmin=0:0:0 / qpmax=69:69:69 / qpstep=4 / vbv_maxrate=50000 / vbv_bufsize=62500 / crf_max=0.0 / nal_hrd=none / filler=0 / ip_ratio=1.30 / pb_ratio=1.20 / aq=4:1.00 / aq-sensitivity=15.00 / aq-factor=1.00:1.00:1.00 / aq2=0 / aq3=0 / zones=11229,11245,q=17/11277,11302,q=17/11322,11381,q=17/11479,11538,q=17/12172,12187,q=17/13222,13288,q=17/16774,16845,q=17/17077,17132,q=17/17553,17602,q=17
Language : English
Default : Yes
Forced : No
Audio #1
ID : 2
Format : AC-3
Format/Info : Audio Coding 3
Mode extension : CM (complete main)
Format settings, Endianness : Big
Codec ID : A_AC3
Duration : 48mn 12s
Bit rate mode : Constant
Bit rate : 640 Kbps
Channel(s) : 6 channels
Channel positions : Front: L C R, Side: L R, LFE
Sampling rate : 48.0 KHz
Bit depth : 16 bits
Compression mode : Lossy
Stream size : 221 MiB (4%)
Title : AlexFilm
Language : Russian
Default : Yes
Forced : No
Audio #2
ID : 3
Format : AC-3
Format/Info : Audio Coding 3
Mode extension : CM (complete main)
Format settings, Endianness : Big
Codec ID : A_AC3
Duration : 48mn 12s
Bit rate mode : Constant
Bit rate : 640 Kbps
Channel(s) : 6 channels
Channel positions : Front: L C R, Side: L R, LFE
Sampling rate : 48.0 KHz
Bit depth : 16 bits
Compression mode : Lossy
Stream size : 221 MiB (4%)
Title : LostFilm
Language : Russian
Default : No
Forced : No
Audio #3
ID : 4
Format : AC-3
Format/Info : Audio Coding 3
Mode extension : CM (complete main)
Format settings, Endianness : Big
Codec ID : A_AC3
Duration : 48mn 12s
Bit rate mode : Constant
Bit rate : 640 Kbps
Channel(s) : 6 channels
Channel positions : Front: L C R, Side: L R, LFE
Sampling rate : 48.0 KHz
Bit depth : 16 bits
Compression mode : Lossy
Stream size : 221 MiB (4%)
Title : NewStudio
Language : Russian
Default : No
Forced : No
Audio #4
ID : 5
Format : AC-3
Format/Info : Audio Coding 3
Mode extension : CM (complete main)
Format settings, Endianness : Big
Codec ID : A_AC3
Duration : 48mn 12s
Bit rate mode : Constant
Bit rate : 640 Kbps
Channel(s) : 6 channels
Channel positions : Front: L C R, Side: L R, LFE
Sampling rate : 48.0 KHz
Bit depth : 16 bits
Compression mode : Lossy
Stream size : 221 MiB (4%)
Title : English
Language : English
Default : No
Forced : No
Text #1
ID : 6
Format : UTF-8
Codec ID : S_TEXT/UTF8
Codec ID/Info : UTF-8 Plain Text
Title : forced
Language : Russian
Default : Yes
Forced : Yes
Text #2
ID : 7
Format : UTF-8
Codec ID : S_TEXT/UTF8
Codec ID/Info : UTF-8 Plain Text
Title : eng-sub
Language : English
Default : No
Forced : No
Menu
00:00:00.000 : en:00:00:00.000
00:04:18.133 : en:00:04:18.133
00:06:23.383 : en:00:06:23.383
00:09:58.640 : en:00:09:58.640
00:12:38.216 : en:00:12:38.216
00:16:08.342 : en:00:16:08.342
00:20:41.991 : en:00:20:41.991
00:25:10.801 : en:00:25:10.801
00:28:08.437 : en:00:28:08.437
00:30:14.271 : en:00:30:14.271
00:34:42.455 : en:00:34:42.455
00:41:28.903 : en:00:41:28.903

Скриншоты

Список серийСезон 2, Серии 1-10
01. Brother's War / Война братьев
02. Invasion / Набег
03. Treachery / Вероломство
04. Eye for an Eye / Око за око
05. Answers in Blood / Истина в крови
06. Unforgiven / Непрощённый
07. Blood Eagle / Кровавый орёл
08. Boneless / Бескостный
09. The Choice / Выбор
10. The Lord's Prayer / Отче наш
Вы не можете начинать темы
Вы не можете отвечать на сообщения
Вы не можете редактировать свои сообщения
Вы не можете удалять свои сообщения
Вы не можете голосовать в опросах
Вы не можете прикреплять файлы к сообщениям
Вы можете скачивать файлы
!ВНИМАНИЕ!

Сайт не предоставляет электронные версии произведений, а занимается лишь коллекционированием и каталогизацией ссылок, присылаемых и публикуемых на форуме нашими читателями. Если вы являетесь правообладателем какого-либо представленного материала и не желаете, чтобы ссылка на него находилась в нашем каталоге, свяжитесь с нами, и мы незамедлительно удалим ее. Файлы для обмена на трекере предоставлены пользователями сайта, и администрация не несет ответственности за их содержание. Просьба не заливать файлы, защищенные авторскими правами, а также файлы нелегального содержания!

Искали программы, игры, дополнения, музыка mp3, аниме, аудио книги, журналы? Добро пожаловать на свободный торрент трекер Torrents, у нас можно скачать бесплатно, без смс и регистрации и прочих ограничений лучшие, отборные сборки программ, игр. Скачать торрентом не составит труда даже не опытному пользователю. Раздачи ежедневно обновляются, только лучшие и качественные раздачи, подробные описания и скриншоты. Огромная коллекция программ для работы со звуком, графикой, дизайном, а так же множество плагинов и инструментов к ним с подробной инструкцией и рекомендациями. Прошивки для навигаторов, карты. Разнообразные игры, для Windows, Linux. В коллекцие есть и старые игры любых жанров, Rpg, Action, Shooter, strategy Множество дополнений, модификаций, сценариев для популярных игр в жанре экш, рпг, гонки, стратегии, логические игры. Множество аддонов и сценариев для Microsoft Flight Simulator Большая коллекция книг, учебников. Если нет возможности купить печатное издание - смело скачивайте цифровую версию книги или, быть может, журнала. Не любите читать - можно загрузить бесплатно аудикнигу. Для веб дизайнеров и программистов так же найдется множество специализированного софта, таких как: редакторы с подсветкой, среды программирования, компоненты, системы управления базами данных, разнообразные скрипты и шаблоны. Не так давно у нас появился материал для автолюбителей и владельцев мото - оригинальные и неоригинальные каталоги запчастей, книги и журналы по ремонту и обслуживанию, видеоуроки, статьи по чип тюнингу, прошивкам. Процедура получения контента элементарная, достаточно просто скачать торрент файл и добавить его в загрузку в вашем торрент клиенте. Если у вас нет специального торрент клиента, вы можете его скачать у нас.

Sitemap