Блудливая Калифорния / Californication / Сезон: 5 / Серии: 1-12 (12) (Том Капинос) [2012, США, комедия, драма, HDTVRip 720p] DVO (Jimmy J. & GREEN TEA / Juliya Voice) + Original + Rus subs 

Цитировать
Блудливая Калифорния / Californication3 сезон: [ HDTVRip / HDTV 720p ]4 сезон: [ HDTVRip / HDTV 720p ]
5 сезон: [ HDTVRip / HDTV 720p / ]- Год выпуска: 2012
Страна: США | Showtime
Жанр: комедия, драма
Продолжительность: ~ 29 минут
Перевод: Любительский двухголосый закадровый Jimmy J. & pandora2177 / Juliya Voice
Русские субтитры: да
Режиссёр: Том Капинос
В ролях: Дэвид Духовны (Hank Moody), Наташа МакЭлхоун (Karen), Мадлен Мартин (Becca Moody), Эван Хэндлер (Charlie Runkle), Памела Адлон (Marcy Runkle), Мадлен Зима (Mia Lewis) и др.
Описание: После трех лет в Нью-Йорке, где всё было просто и не было обязательств, писатель Хэнк Муди возвращается в Калифорнию. У его бывшей — новый муж и домик за белым забором, у дочери- новый парень. А что ждет Хэнка в Лос-Анджелесе?
Ссылка на предыдущие и альтернативные раздачи: http://rutracker.org/forum/tracker.php?f%5B%5D=194&f%5B%5D=2366&nm=Californication
Сэмпл: http://multi-up.com/640161
Качество: HDTV 720p
Формат: mkv
Видео кодек: H.264
Аудио кодек: AC3
Видео: 1280×720 (1.78:1), V_MPEG4/ISO/AVC, 23.976 fps, 2511 kbps avg, 0,114 bit/pixel
Аудио: 48 kHz, Audio Coding 3, 5.1 @ 384 kbps
Аудио 2: 48 kHz, Audio Coding 3, 5.1 @ 384 kbps
Дорожка #1 получена наложением чистых голосов на центр декодированного 5.1 AC3

MI

General
Unique ID : 189310145615955130675245663907283611148 (0x8E6BCECD68F4A1B196E2BB9644B22E0C)
Complete name : D:\Californication Season 5 Jimmy J 720р\Californication.S05E01.720p.HDTV.x264.mkv
Format : Matroska
Format version : Version 2
File size : 705 MiB
Duration : 29mn 27s
Overall bit rate : 3 345 Kbps
Encoded date : UTC 2012-01-31 07:53:58
Writing application : mkvmerge v5.2.1 ('A Far Off Place') built on Jan 2 2012 23:21:10
Writing library : libebml v1.2.3 + libmatroska v1.3.0
Video
ID : 1
Format : AVC
Format/Info : Advanced Video Codec
Format profile : High@L3.1
Format settings, CABAC : Yes
Format settings, ReFrames : 5 frames
Codec ID : V_MPEG4/ISO/AVC
Duration : 29mn 27s
Bit rate : 2 511 Kbps
Width : 1 280 pixels
Height : 720 pixels
Display aspect ratio : 16:9
Frame rate : 23.976 fps
Color space : YUV
Chroma subsampling : 4:2:0
Bit depth : 8 bits
Scan type : Progressive
Bits/(Pixel*Frame) : 0.114
Stream size : 529 MiB (75%)
Writing library : x264 core 120 r2120 0c7dab9
Encoding settings : cabac=1 / ref=5 / deblock=1:0:0 / analyse=0x3:0x113 / me=umh / subme=8 / psy=1 / psy_rd=1.00:0.00 / mixed_ref=1 / me_range=16 / chroma_me=1 / trellis=1 / 8x8dct=1 / cqm=0 / deadzone=21,11 / fast_pskip=1 / chroma_qp_offset=-2 / threads=18 / sliced_threads=0 / nr=0 / decimate=1 / interlaced=0 / bluray_compat=0 / constrained_intra=0 / bframes=3 / b_pyramid=2 / b_adapt=2 / b_bias=0 / direct=3 / weightb=1 / open_gop=0 / weightp=2 / keyint=250 / keyint_min=23 / scenecut=40 / intra_refresh=0 / rc_lookahead=50 / rc=crf / mbtree=1 / crf=19.0 / qcomp=0.60 / qpmin=0 / qpmax=69 / qpstep=4 / ip_ratio=1.40 / aq=1:1.00
Language : English
Audio #1
ID : 2
Format : AC-3
Format/Info : Audio Coding 3
Mode extension : CM (complete main)
Codec ID : A_AC3
Duration : 29mn 27s
Bit rate mode : Constant
Bit rate : 384 Kbps
Channel(s) : 6 channels
Channel positions : Front: L C R, Side: L R, LFE
Sampling rate : 48.0 KHz
Bit depth : 16 bits
Compression mode : Lossy
Stream size : 80.9 MiB (11%)
Language : Russian
Audio #2
ID : 3
Format : AC-3
Format/Info : Audio Coding 3
Mode extension : CM (complete main)
Codec ID : A_AC3
Duration : 29mn 27s
Bit rate mode : Constant
Bit rate : 384 Kbps
Channel(s) : 6 channels
Channel positions : Front: L C R, Side: L R, LFE
Sampling rate : 48.0 KHz
Bit depth : 16 bits
Compression mode : Lossy
Stream size : 80.9 MiB (11%)
Language : English

Скриншоты

Внимание! Раздача ведётся путём добавления новых серий

Внимание! Раздача ведётся путём добавления новых серий; при каждом добавлении создаётся новый торрент. Чтобы начать докачку новой серии, пользователям необходимо сделать следующее:
(1) остановить скачивание,
(2) удалить старый торрент у себя из клиента (старые серии удалять не надо),
(3) скачать новый торрент и запустить его у себя в клиенте вместо старого, при этом указать клиенту путь в старую папку куда и должно происходить скачивание новых серий.
Ваш клиент при этом должен произвести хеширование (проверку) старой папки (если не производит сам - помогите ему сделать это), и будет докачивать только те серии которых у вас ещё нет. Старые серии при этом не удаляются, а продолжают раздаваться!
Eсли вы уже удалили старые серии, то предотвратить повторную закачку старых серий можно, отжав галочку в соответствующих местах при запуске нового торрента. По возможности, желательно не удалять старые серии как можно дольше чтобы релизёр не столько продолжал раздавать старые серии, а смог сконцентрироваться на новых.
Вы не можете начинать темы
Вы не можете отвечать на сообщения
Вы не можете редактировать свои сообщения
Вы не можете удалять свои сообщения
Вы не можете голосовать в опросах
Вы не можете прикреплять файлы к сообщениям
Вы можете скачивать файлы
!ВНИМАНИЕ!

Сайт не предоставляет электронные версии произведений, а занимается лишь коллекционированием и каталогизацией ссылок, присылаемых и публикуемых на форуме нашими читателями. Если вы являетесь правообладателем какого-либо представленного материала и не желаете, чтобы ссылка на него находилась в нашем каталоге, свяжитесь с нами, и мы незамедлительно удалим ее. Файлы для обмена на трекере предоставлены пользователями сайта, и администрация не несет ответственности за их содержание. Просьба не заливать файлы, защищенные авторскими правами, а также файлы нелегального содержания!

Искали программы, игры, дополнения, музыка mp3, аниме, аудио книги, журналы? Добро пожаловать на свободный торрент трекер Torrents, у нас можно скачать бесплатно, без смс и регистрации и прочих ограничений лучшие, отборные сборки программ, игр. Скачать торрентом не составит труда даже не опытному пользователю. Раздачи ежедневно обновляются, только лучшие и качественные раздачи, подробные описания и скриншоты. Огромная коллекция программ для работы со звуком, графикой, дизайном, а так же множество плагинов и инструментов к ним с подробной инструкцией и рекомендациями. Прошивки для навигаторов, карты. Разнообразные игры, для Windows, Linux. В коллекцие есть и старые игры любых жанров, Rpg, Action, Shooter, strategy Множество дополнений, модификаций, сценариев для популярных игр в жанре экш, рпг, гонки, стратегии, логические игры. Множество аддонов и сценариев для Microsoft Flight Simulator Большая коллекция книг, учебников. Если нет возможности купить печатное издание - смело скачивайте цифровую версию книги или, быть может, журнала. Не любите читать - можно загрузить бесплатно аудикнигу. Для веб дизайнеров и программистов так же найдется множество специализированного софта, таких как: редакторы с подсветкой, среды программирования, компоненты, системы управления базами данных, разнообразные скрипты и шаблоны. Не так давно у нас появился материал для автолюбителей и владельцев мото - оригинальные и неоригинальные каталоги запчастей, книги и журналы по ремонту и обслуживанию, видеоуроки, статьи по чип тюнингу, прошивкам. Процедура получения контента элементарная, достаточно просто скачать торрент файл и добавить его в загрузку в вашем торрент клиенте. Если у вас нет специального торрент клиента, вы можете его скачать у нас.

Sitemap