Викинги / Vikings / Сезон: 1 / Серии: 1-9 (9) (Киаран Доннелли) [2013, История, боевик, BDRip 720p] 5xMVO (Alexfilm, Lostfilm, NewStudio, Первый Канал, BaibaKo) + UKR (1+1) + Original (eng) + Subs (Rus, Eng) 

Цитировать
-Викинги / Vikings- Год выпуска • 2013
Страна • Ирландия, Канада
Жанр • История, боевик
Озвучание
• Профессиональный (многоголосый, закадровый) "Alexfilm"
• Профессиональный (многоголосый, закадровый) "Lostfilm"
• Профессиональный (многоголосый, закадровый) "Первый Канал"
• Профессиональный (многоголосый, закадровый) "NewStudio"
• Любительский (многоголосый, закадровый) "BaibaKo"
• Профессиональный (многоголосый, закадровый) "1+1" (Укр.)-Режиссёр • Киаран Доннелли
В ролях • Трэвис Фиммел, Клайв Стэнден, Гэбриел Бирн, Кэтрин Уинник, Джессалин Гилсиг, Джордж Благден, Густаф Скарсгард и др.-Описание • Сериал рассказывает об отряде викингов Рагнара. Он восстал, чтобы стать королём племён викингов. Норвежская легенда гласит, что он был прямым потомком Одина, бога войны и воинов.-Автор РипаCtrlHD
СубтитрыОльга Галайда
Работа со звуком и субтитрамиGater
Релиз подготовилGater-
Продолжительность: ~ 44 Мин.
Качество: BDRip 720p
Формат: MKV
Видео: AVC / ~ 6500 kbps / 1280:720p / 23.976 fps / 16:9 / ~ 0.279 bit/pixel / High Level 4.1
Аудио:
Русский / DTS 5.1 / 48 kHz / 1509 kbps - Alexfilm
Русский / DTS 5.1 / 48 kHz / 1509 kbps - Lostfilm
Русский / DTS 5.1 / 48 kHz / 1509 kbps - Первый Канал
Русский / DTS 5.1 / 48 kHz / 1509 kbps - NewStudio
Русский / DTS 5.1 / 48 kHz / 1509 kbps - BaibaKo
Украинский / Dolby Digital 2.0 / 48 kHz / 192 kbps - 1+1
English / DTS 5.1 / 48 kHz / 1509 kbps
Субтитры:
Русские (Forsed, Full) SRT/ASS / English SRT-
Дорожка #1 получена путём наложения чистого голоса на центр декодированного DTS.
За чистый войс большое спасибо Игорю Волкову.
Дорожка #2-5 получена путём наложения выделенного голоса на центр декодированного DTS.
За выделенные дорожки Lostfilm и Newstudio спасибо k-marat-s.
За Украинскую дорожку спасибо slavik_v_z, Dark Invader 2 и сайт hurtom.
Bluray версия расширенная, поэтому на непереведённые места наложена форсированные субитры,
переведённые автором раздачи.

За перевод субтитров на русский язык спасибо Ольге Галайде.
За предоставление и синхронизацию субтитров спасибо exe.
-Все раздачи сериала
-

Скриншоты

-

MediaInfo


General
Unique ID : 223071182393295233080016860960011705014 (0xA7D1F26DF1A61CE8B1081EC449F1DAB6)
Complete name : H:\Vikings S01 BDRip 720p 6XMVO+Subs\Vikings S01E01 BDRip 720p 6XMVO+Subs.mkv
Format : Matroska
Format version : Version 2
File size : 5.12 GiB
Duration : 46mn 36s
Overall bit rate : 15.7 Mbps
Encoded date : UTC 2014-09-13 15:07:20
Writing application : mkvmerge v4.0.0 ('The Stars were mine') сборка от Jun 6 2010 16:18:42
Writing library : libebml v1.0.0 + libmatroska v1.0.0
Video
ID : 1
Format : AVC
Format/Info : Advanced Video Codec
Format profile : High@L4.1
Format settings, CABAC : Yes
Format settings, ReFrames : 9 frames
Codec ID : V_MPEG4/ISO/AVC
Duration : 46mn 36s
Bit rate : 6 173 Kbps
Nominal bit rate : 6 500 Kbps
Width : 1 280 pixels
Height : 720 pixels
Display aspect ratio : 16:9
Frame rate mode : Constant
Frame rate : 23.976 fps
Color space : YUV
Chroma subsampling : 4:2:0
Bit depth : 8 bits
Scan type : Progressive
Bits/(Pixel*Frame) : 0.279
Stream size : 2.01 GiB (39%)
Writing library : x264 core 138 r2358kMod 9e941d1
Encoding settings : cabac=1 / ref=9 / deblock=1:-3:-3 / analyse=0x3:0x113 / me=umh / subme=10 / psy=1 / fade_compensate=0.00 / psy_rd=1.10:0.00 / mixed_ref=1 / me_range=16 / chroma_me=1 / trellis=2 / 8x8dct=1 / cqm=0 / deadzone=21,11 / fast_pskip=0 / chroma_qp_offset=-2 / threads=6 / lookahead_threads=1 / sliced_threads=0 / nr=0 / decimate=0 / interlaced=0 / bluray_compat=0 / constrained_intra=0 / bframes=8 / b_pyramid=2 / b_adapt=2 / b_bias=0 / direct=3 / weightb=1 / open_gop=0 / weightp=2 / keyint=250 / keyint_min=23 / scenecut=40 / intra_refresh=0 / rc_lookahead=60 / rc=2pass / mbtree=0 / bitrate=6500 / ratetol=1.0 / qcomp=0.70 / qpmin=0 / qpmax=69 / qpstep=4 / cplxblur=20.0 / qblur=0.5 / vbv_maxrate=15000 / vbv_bufsize=10000 / nal_hrd=none / ip_ratio=1.30 / pb_ratio=1.10 / aq=1:1.00 / zones=3636,3894,q=8/4917,6116,q=10/22427,23247,q=8/44621,44781,q=8/45026,45116,q=8
Language : English
Default : No
Forced : No
Audio #1
ID : 2
Format : DTS
Format/Info : Digital Theater Systems
Mode : 16
Format settings, Endianness : Big
Codec ID : A_DTS
Duration : 46mn 36s
Bit rate mode : Constant
Bit rate : 1 509 Kbps
Channel(s) : 6 channels
Channel positions : Front: L C R, Side: L R, LFE
Sampling rate : 48.0 KHz
Bit depth : 24 bits
Compression mode : Lossy
Stream size : 503 MiB (10%)
Title : DTS 5.1 @ 1509 - Alexfilm
Language : Russian
Default : Yes
Forced : No
Audio #2
ID : 3
Format : DTS
Format/Info : Digital Theater Systems
Mode : 16
Format settings, Endianness : Big
Codec ID : A_DTS
Duration : 46mn 36s
Bit rate mode : Constant
Bit rate : 1 509 Kbps
Channel(s) : 6 channels
Channel positions : Front: L C R, Side: L R, LFE
Sampling rate : 48.0 KHz
Bit depth : 24 bits
Compression mode : Lossy
Stream size : 503 MiB (10%)
Title : DTS 5.1 @ 1509 - Lostfilm
Language : Russian
Default : No
Forced : No
Audio #3
ID : 4
Format : DTS
Format/Info : Digital Theater Systems
Mode : 16
Format settings, Endianness : Big
Codec ID : A_DTS
Duration : 46mn 36s
Bit rate mode : Constant
Bit rate : 1 509 Kbps
Channel(s) : 6 channels
Channel positions : Front: L C R, Side: L R, LFE
Sampling rate : 48.0 KHz
Bit depth : 24 bits
Compression mode : Lossy
Stream size : 503 MiB (10%)
Title : DTS 5.1 @ 1509 - Первый Канал
Language : Russian
Default : No
Forced : No
Audio #4
ID : 5
Format : DTS
Format/Info : Digital Theater Systems
Mode : 16
Format settings, Endianness : Big
Codec ID : A_DTS
Duration : 46mn 36s
Bit rate mode : Constant
Bit rate : 1 509 Kbps
Channel(s) : 6 channels
Channel positions : Front: L C R, Side: L R, LFE
Sampling rate : 48.0 KHz
Bit depth : 24 bits
Compression mode : Lossy
Stream size : 503 MiB (10%)
Title : DTS 5.1 @ 1509 - NewStudio
Language : Russian
Default : No
Forced : No
Audio #5
ID : 6
Format : DTS
Format/Info : Digital Theater Systems
Mode : 16
Format settings, Endianness : Big
Codec ID : A_DTS
Duration : 46mn 36s
Bit rate mode : Constant
Bit rate : 1 509 Kbps
Channel(s) : 6 channels
Channel positions : Front: L C R, Side: L R, LFE
Sampling rate : 48.0 KHz
Bit depth : 24 bits
Compression mode : Lossy
Stream size : 503 MiB (10%)
Title : DTS 5.1 @ 1509 - Baibako
Language : Russian
Default : No
Forced : No
Audio #6
ID : 7
Format : AC-3
Format/Info : Audio Coding 3
Mode extension : CM (complete main)
Format settings, Endianness : Big
Codec ID : A_AC3
Duration : 46mn 36s
Bit rate mode : Constant
Bit rate : 192 Kbps
Channel(s) : 2 channels
Channel positions : Front: L R
Sampling rate : 48.0 KHz
Bit depth : 16 bits
Compression mode : Lossy
Stream size : 64.0 MiB (1%)
Title : DD 2.0 @ 192 - 1+1
Language : Ukrainian
Default : No
Forced : No
Audio #7
ID : 8
Format : DTS
Format/Info : Digital Theater Systems
Mode : 16
Format settings, Endianness : Big
Codec ID : A_DTS
Duration : 46mn 36s
Bit rate mode : Constant
Bit rate : 1 509 Kbps
Channel(s) : 6 channels
Channel positions : Front: L C R, Side: L R, LFE
Sampling rate : 48.0 KHz
Bit depth : 24 bits
Compression mode : Lossy
Stream size : 503 MiB (10%)
Title : DTS 5.1 @ 1509 - Original
Language : English
Default : No
Forced : No
Text #1
ID : 9
Format : UTF-8
Codec ID : S_TEXT/UTF8
Codec ID/Info : UTF-8 Plain Text
Title : Forsed (SRT)
Language : Russian
Default : Yes
Forced : No
Text #2
ID : 10
Format : UTF-8
Codec ID : S_TEXT/UTF8
Codec ID/Info : UTF-8 Plain Text
Title : Full (SRT)
Language : Russian
Default : No
Forced : No
Text #3
ID : 11
Format : ASS
Codec ID : S_TEXT/ASS
Codec ID/Info : Advanced Sub Station Alpha
Compression mode : Lossless
Title : Forced (ASS)
Language : Russian
Default : No
Forced : No
Text #4
ID : 12
Format : ASS
Codec ID : S_TEXT/ASS
Codec ID/Info : Advanced Sub Station Alpha
Compression mode : Lossless
Title : Full (ASS)
Language : Russian
Default : No
Forced : No
Text #5
ID : 13
Format : UTF-8
Codec ID : S_TEXT/UTF8
Codec ID/Info : UTF-8 Plain Text
Title : English-SDH
Language : English
Default : No
Forced : No
Text #6
ID : 14
Format : UTF-8
Codec ID : S_TEXT/UTF8
Codec ID/Info : UTF-8 Plain Text
Default : No
Forced : No
Menu
00:00:00.000 : en:Chapter 1
00:04:15.755 : en:Chapter 2
00:07:52.055 : en:Chapter 3
00:11:29.647 : en:Chapter 4
00:16:48.591 : en:Chapter 5
00:20:45.160 : en:Chapter 6
00:22:56.542 : en:Chapter 7
00:25:57.764 : en:Chapter 8
00:28:41.428 : en:Chapter 9
00:31:58.083 : en:Chapter 10
00:36:12.962 : en:Chapter 11
00:42:56.616 : en:Chapter 12

Внимание! Раздача ведётся путём добавления новых серий!

Внимание! Раздача ведётся путём добавления новых серий; при каждом добавлении создётся новый торрент. Чтобы начать докачку новой серии, пользователям необходимо сделать следующее:
(1) остановить скачивание,
(2) удалить старый торрент у себя из клиента (старые серии удалять не надо),
(3) скачать новый торрент и запустить его у себя в клиенте вместо старого, при этом указать клиенту путь в старую папку куда и должно происходить скачивание новых серий.
Ваш клиент при этом должен произвести хеширование (проверку) старой папки (если не производит сам - помогите ему сделать это), и будет докачивать только те серии которых у вас ещё нет. Старые серии при этом не удаляются, а продолжают раздаваться!
Eсли вы уже удалили старые серии, то предотвратить повторную закачку старых серий можно, отжав галочку в соответсвующих местах при запуске нового торрента.
Вы не можете начинать темы
Вы не можете отвечать на сообщения
Вы не можете редактировать свои сообщения
Вы не можете удалять свои сообщения
Вы не можете голосовать в опросах
Вы не можете прикреплять файлы к сообщениям
Вы можете скачивать файлы
!ВНИМАНИЕ!

Сайт не предоставляет электронные версии произведений, а занимается лишь коллекционированием и каталогизацией ссылок, присылаемых и публикуемых на форуме нашими читателями. Если вы являетесь правообладателем какого-либо представленного материала и не желаете, чтобы ссылка на него находилась в нашем каталоге, свяжитесь с нами, и мы незамедлительно удалим ее. Файлы для обмена на трекере предоставлены пользователями сайта, и администрация не несет ответственности за их содержание. Просьба не заливать файлы, защищенные авторскими правами, а также файлы нелегального содержания!

Искали программы, игры, дополнения, музыка mp3, аниме, аудио книги, журналы? Добро пожаловать на свободный торрент трекер Torrents, у нас можно скачать бесплатно, без смс и регистрации и прочих ограничений лучшие, отборные сборки программ, игр. Скачать торрентом не составит труда даже не опытному пользователю. Раздачи ежедневно обновляются, только лучшие и качественные раздачи, подробные описания и скриншоты. Огромная коллекция программ для работы со звуком, графикой, дизайном, а так же множество плагинов и инструментов к ним с подробной инструкцией и рекомендациями. Прошивки для навигаторов, карты. Разнообразные игры, для Windows, Linux. В коллекцие есть и старые игры любых жанров, Rpg, Action, Shooter, strategy Множество дополнений, модификаций, сценариев для популярных игр в жанре экш, рпг, гонки, стратегии, логические игры. Множество аддонов и сценариев для Microsoft Flight Simulator Большая коллекция книг, учебников. Если нет возможности купить печатное издание - смело скачивайте цифровую версию книги или, быть может, журнала. Не любите читать - можно загрузить бесплатно аудикнигу. Для веб дизайнеров и программистов так же найдется множество специализированного софта, таких как: редакторы с подсветкой, среды программирования, компоненты, системы управления базами данных, разнообразные скрипты и шаблоны. Не так давно у нас появился материал для автолюбителей и владельцев мото - оригинальные и неоригинальные каталоги запчастей, книги и журналы по ремонту и обслуживанию, видеоуроки, статьи по чип тюнингу, прошивкам. Процедура получения контента элементарная, достаточно просто скачать торрент файл и добавить его в загрузку в вашем торрент клиенте. Если у вас нет специального торрент клиента, вы можете его скачать у нас.

Sitemap