Тайны следствия / Сезон: 11 / Серии: 01-12 из 12 (Михаил Вассербаум) [2012, Детектив, HDTV 1080i] 

Цитировать
Тайны следствия
Год выпуска: 2012
Производство: Россия, Форвард-фильм
Жанр: Детектив
Продолжительность: ~ 00:45:00 / серия
Субтитры: Отсутствуют
Режиссёр: Михаил Вассербаум
В ролях: Анна Ковальчук, Сергей Барышев, Вячеслав Захаров, Александр Новиков, Мирослав Малич, Игорь Григорьев, Александр Шпилько, Светлана Щедрина, Олег Алмазов, Юлия Яковлева, Андрей Шарков, Дмитрий Поднозов, Злата Ильченко, Сергей Куприянов, Нелли Попова, Марианна Лучинина, Ольга Павловец и другие.
Описание: В этот раз следователь Швецова возьмётся за не менее сложные и запутанные дела. Тело генерального директора известной пивной компании Выготского будет найдено на пороге ресторана. Его жена и любовница станут бороться за освободившееся директорское кресло. Маше придётся выяснить, кто из них причастен к убийству. К счастью, Швецовой всегда готовы помочь коллеги - бывалые судмедэксперты и криминалисты Володя Винокуров и Фёдор Курочкин. Также специалистам питерского следственного комитета предстоит раскрыть странное преступление - убийство бывшего шкипера Глебова, отравленного неизвестным ноотропным препаратом. В личной жизни у Маши есть несгибаемый тыл в лице любящего супруга Дмитрия Луганского и дочери Златы. Благодаря их поддержке, а также своим выдающимся способностям Маша никогда не пасует перед самыми трудными преступлениями. В раскрытии некоторых дел активное участие принимает новый работник комитета – следователь Людмила Колонкова. Она работает по протекции главы следственного комитета Филонова , с которым у Швецовой по-прежнему непростые отношения из-за разницы в профессиональных взглядах.
Все раздачи сериала: http://rutracker.org/forum/tracker.php?f=207&nm=%D2%E0%E9%ED%FB+%F1%EB%E5%E4%F1%F2%E2%E8%FF
Сэмпл: http://multi-up.com/833369
Доп. информация: Релиз -

Рип чистый. Без посторонних надписей. Выкладывается как есть.
Качество: HDTV 1080i
Контейнер: TS
Видео кодек: AVC
Аудио кодек: AC3
Видео: 1920x1080 (16:9) 25.000 fps 7 852 Kbps, 0.151 bit/pixel
Аудио: MPEG Audio 48000Hz stereo 192 Кбит/сек

Скриншоты


MI

General
ID : 1 (0x1)
Complete name : G:\ВЫКЛАДКА\HDTV\Сериалы\Тайны следствия. Сезон 11 (2012, Детектив, HDTV) (MYDIMKA)\01 серия.ts
Format : MPEG-TS
File size : 2.63 GiB
Duration : 44mn 27s
Overall bit rate mode : Variable
Overall bit rate : 8 464 Kbps
Video
ID : 2911 (0xB5F)
Menu ID : 1 (0x1)
Format : AVC
Format/Info : Advanced Video Codec
Format profile : High@L4.0
Format settings, CABAC : Yes
Format settings, ReFrames : 4 frames
Codec ID : 27
Duration : 44mn 27s
Bit rate : 7 852 Kbps
Width : 1 920 pixels
Height : 1 080 pixels
Display aspect ratio : 16:9
Frame rate : 25.000 fps
Color space : YUV
Chroma subsampling : 4:2:0
Bit depth : 8 bits
Scan type : MBAFF
Bits/(Pixel*Frame) : 0.151
Stream size : 2.44 GiB (93%)
Audio
ID : 2912 (0xB60)
Menu ID : 1 (0x1)
Format : MPEG Audio
Format version : Version 1
Format profile : Layer 2
Codec ID : 3
Duration : 44mn 27s
Bit rate mode : Constant
Bit rate : 192 Kbps
Channel(s) : 2 channels
Sampling rate : 48.0 KHz
Compression mode : Lossy
Stream size : 61.1 MiB (2%)
Language : Russian

Внимание! Раздача ведётся путём добавления новых выпусков

Внимание! Раздача ведётся путём добавления новых выпусков; при каждом добавлении создётся новый торрент. Чтобы начать докачку нового выпуска, пользователям необходимо сделать следующее:
(1) остановить скачивание,
(2) удалить старый торрент у себя из клиента (старые выпуски удалять не надо),
(3) скачать новый торрент и запустить его у себя в клиенте вместо старого, при этом указать клиенту путь в старую папку куда и должно происходить скачивание новых выпусков.
Ваш клиент при этом должен произвести хеширование (проверку) старой папки (если не производит сам - помогите ему сделать это), и будет докачивать только те выпуски которых у вас ещё нет. Старые выпуски при этом не удаляются, а продолжают раздаваться!
Eсли вы уже удалили старые выпуски, то предотвратить повторную закачку старых выпусков можно, отжав галочку в соответсвующих местах при запуске нового торрента. По возможности, желательно не удалять старые выпуски как можно дольше чтобы релизёр не столько продолжал раздавать старые выпуски, а смог сконцентрироваться на новых.
Вы не можете начинать темы
Вы не можете отвечать на сообщения
Вы не можете редактировать свои сообщения
Вы не можете удалять свои сообщения
Вы не можете голосовать в опросах
Вы не можете прикреплять файлы к сообщениям
Вы можете скачивать файлы
!ВНИМАНИЕ!

Сайт не предоставляет электронные версии произведений, а занимается лишь коллекционированием и каталогизацией ссылок, присылаемых и публикуемых на форуме нашими читателями. Если вы являетесь правообладателем какого-либо представленного материала и не желаете, чтобы ссылка на него находилась в нашем каталоге, свяжитесь с нами, и мы незамедлительно удалим ее. Файлы для обмена на трекере предоставлены пользователями сайта, и администрация не несет ответственности за их содержание. Просьба не заливать файлы, защищенные авторскими правами, а также файлы нелегального содержания!

Искали программы, игры, дополнения, музыка mp3, аниме, аудио книги, журналы? Добро пожаловать на свободный торрент трекер Torrents, у нас можно скачать бесплатно, без смс и регистрации и прочих ограничений лучшие, отборные сборки программ, игр. Скачать торрентом не составит труда даже не опытному пользователю. Раздачи ежедневно обновляются, только лучшие и качественные раздачи, подробные описания и скриншоты. Огромная коллекция программ для работы со звуком, графикой, дизайном, а так же множество плагинов и инструментов к ним с подробной инструкцией и рекомендациями. Прошивки для навигаторов, карты. Разнообразные игры, для Windows, Linux. В коллекцие есть и старые игры любых жанров, Rpg, Action, Shooter, strategy Множество дополнений, модификаций, сценариев для популярных игр в жанре экш, рпг, гонки, стратегии, логические игры. Множество аддонов и сценариев для Microsoft Flight Simulator Большая коллекция книг, учебников. Если нет возможности купить печатное издание - смело скачивайте цифровую версию книги или, быть может, журнала. Не любите читать - можно загрузить бесплатно аудикнигу. Для веб дизайнеров и программистов так же найдется множество специализированного софта, таких как: редакторы с подсветкой, среды программирования, компоненты, системы управления базами данных, разнообразные скрипты и шаблоны. Не так давно у нас появился материал для автолюбителей и владельцев мото - оригинальные и неоригинальные каталоги запчастей, книги и журналы по ремонту и обслуживанию, видеоуроки, статьи по чип тюнингу, прошивкам. Процедура получения контента элементарная, достаточно просто скачать торрент файл и добавить его в загрузку в вашем торрент клиенте. Если у вас нет специального торрент клиента, вы можете его скачать у нас.

Sitemap