Биографии: Иосиф Сталин. Красный террор / Biography: Joseph Stalin. Red Terror (Элисон Гасс / Alison Guss) [1996, документальный, биография, DVDRip] 

Цитировать
Биографии: Иосиф Сталин. Красный террор / Biography: Joseph Stalin. Red Terror
Дата/Год выпуска: 1996
Страна: США
Жанр: документальный, биография
Продолжительность: 00:44:50
Перевод: Одноголосый закадровый
Доп. инфо о переводе: johny4545
Русские субтитры: нет
Оригинальная аудиодорожка: английский
Режиссер: Элисон Гасс / Alison Guss
Телеканал: A&E Networks
Описание: Во время правления Сталина, погибло 20 миллионов советских людей. Он был бессменным руководителем в течение 25–ти лет, большевистский царь. Он страстно желал власти, её ему никогда не было достаточно...
Телевизионный сериал "Биография" берет свое начало в 1987 году. Мировая премьера состоялась 6 апреля 1987 года, с тех пор выпущено более 1200 серий. Первоначально сериал был посвящен жизни исторических личностей, политических и общественных деятелей. Позднее A&E Network стали выпускать биографии деятелей шоу-бизнеса.
Доп. информация: IMDB: http://www.imdb.com/title/tt0969837/?ref_=fn_al_tt_1
Сэмпл: http://sendfile.su/1347999
качество: DVDRip
формат: AVI
Видео: Xvid, 720х544, 4:3, 25.000 fps, 2194 kbps
Аудио: MPEG 2.0 Layer3, 48.0 kHz, 160 kbps. 2.0
Аудио 2: АС-3, 48.0 kHz, 224 kbps. 2.0

MediaInfo

Format : AVI      Format/Info : Audio Video Interleave      File size : 832 MiB      Duration : 44mn 50s      Overall bit rate : 2 592 Kbps      Writing application : VirtualDubMod 1.5.10.2 (build 2540/release)      Writing library : VirtualDubMod build 2540/release   Video #0      ID : 0      Format : MPEG-4 Visual      Format profile : Advanced Simple@L5      Format settings, BVOP : 1      Format settings, QPel : No      Format settings, GMC : No warppoints      Format settings, Matrix : Default (MPEG)      Codec ID : DX50      Codec ID/Hint : DivX 5      Duration : 44mn 50s      Bit rate : 2 194 Kbps      Width : 720 pixels      Height : 544 pixels      Display aspect ratio : 4:3      Frame rate : 25.000 fps      Color space : YUV      Chroma subsampling : 4:2:0      Bit depth : 8 bits      Scan type : Progressive      Compression mode : Lossy      Bits/(Pixel*Frame) : 0.224      Stream size : 704 MiB (85%)      Writing library : XviD 1.2.1 (UTC 2008-12-04)   Audio #1      ID : 1      Format : MPEG Audio      Format version : Version 1      Format profile : Layer 3      Mode : Joint stereo      Codec ID : 55      Codec ID/Hint : MP3      Duration : 44mn 50s      Bit rate mode : Constant      Bit rate : 160 Kbps      Channel(s) : 2 channels      Sampling rate : 48.0 KHz      Compression mode : Lossy      Stream size : 51.3 MiB (6%)      Alignment : Aligned on interleaves      Interleave, duration : 40 ms (1.00 video frame)      Interleave, preload duration : 504 ms   Audio #2      ID : 2      Format : AC-3      Format/Info : Audio Coding 3      Mode extension : CM (complete main)      Format settings, Endianness : Big      Codec ID : 2000      Duration : 44mn 50s      Bit rate mode : Constant      Bit rate : 224 Kbps      Channel(s) : 2 channels      Channel positions : Front: L R      Sampling rate : 48.0 KHz      Bit depth : 16 bits      Compression mode : Lossy      Stream size : 71.9 MiB (9%)      Alignment : Split accross interleaves      Interleave, duration : 40 ms (1.00 video frame)      Interleave, preload duration : 500 ms

Скриншоты

Вы не можете начинать темы
Вы не можете отвечать на сообщения
Вы не можете редактировать свои сообщения
Вы не можете удалять свои сообщения
Вы не можете голосовать в опросах
Вы не можете прикреплять файлы к сообщениям
Вы можете скачивать файлы
!ВНИМАНИЕ!

Сайт не предоставляет электронные версии произведений, а занимается лишь коллекционированием и каталогизацией ссылок, присылаемых и публикуемых на форуме нашими читателями. Если вы являетесь правообладателем какого-либо представленного материала и не желаете, чтобы ссылка на него находилась в нашем каталоге, свяжитесь с нами, и мы незамедлительно удалим ее. Файлы для обмена на трекере предоставлены пользователями сайта, и администрация не несет ответственности за их содержание. Просьба не заливать файлы, защищенные авторскими правами, а также файлы нелегального содержания!

Искали программы, игры, дополнения, музыка mp3, аниме, аудио книги, журналы? Добро пожаловать на свободный торрент трекер Torrents, у нас можно скачать бесплатно, без смс и регистрации и прочих ограничений лучшие, отборные сборки программ, игр. Скачать торрентом не составит труда даже не опытному пользователю. Раздачи ежедневно обновляются, только лучшие и качественные раздачи, подробные описания и скриншоты. Огромная коллекция программ для работы со звуком, графикой, дизайном, а так же множество плагинов и инструментов к ним с подробной инструкцией и рекомендациями. Прошивки для навигаторов, карты. Разнообразные игры, для Windows, Linux. В коллекцие есть и старые игры любых жанров, Rpg, Action, Shooter, strategy Множество дополнений, модификаций, сценариев для популярных игр в жанре экш, рпг, гонки, стратегии, логические игры. Множество аддонов и сценариев для Microsoft Flight Simulator Большая коллекция книг, учебников. Если нет возможности купить печатное издание - смело скачивайте цифровую версию книги или, быть может, журнала. Не любите читать - можно загрузить бесплатно аудикнигу. Для веб дизайнеров и программистов так же найдется множество специализированного софта, таких как: редакторы с подсветкой, среды программирования, компоненты, системы управления базами данных, разнообразные скрипты и шаблоны. Не так давно у нас появился материал для автолюбителей и владельцев мото - оригинальные и неоригинальные каталоги запчастей, книги и журналы по ремонту и обслуживанию, видеоуроки, статьи по чип тюнингу, прошивкам. Процедура получения контента элементарная, достаточно просто скачать торрент файл и добавить его в загрузку в вашем торрент клиенте. Если у вас нет специального торрент клиента, вы можете его скачать у нас.

Sitemap